Welcome Guest ( Log In | Register )

> Releases Upload / Добавление релизов

Добавить релиз тут / Click here to add release
Рекомендованные обменники / Recommended file shares

 
Reply to this topicStart new topic
> Inner Sphere - Outer Reaches Rebellion (2017), Death Metal
post Apr 6 2021, 09:08:53
Post #1

Правь статус, ####!111
**************
Group: Металариец
Posts: 4,263
Releases: 161
From: MoscoW
On Forums: 14 years 4 months
Thanks: 4317 time(s)
Russian Federation


(IMG:https://metalarea.org/images/audiocovers/2021_Apr/acov_tid349332_thumb.jpg)

*Artist: Inner Sphere
*Album: Outer Reaches Rebellion
*Year: 2017
*Genre: Death Metal
*Country: United States (IMG:https://metalarea.org/forum/style_images/flags/United%20States.png)
*Format: mp3@CBR320kbps
*Size: 47MB

Tracklist:
01. Crushed To Dust Beneath A Goliath 02:26
02. Instantly Vaporized Flesh 03:15
03. Exploiting Any Weaknesses In An Enemy's Defenses 01:40
04. Corrosion Around The Exhaust Vents 02:17
05. Scorch The Very Ground For Which You Claim 02:36
06. Reducing Battalions To Scrap Metal 02:31
07. Targeted Technological Facilities 01:30
08. Abbrasive Invasions And Civillian Extermination 03:27
******************************
Total playing time: 19:42

Extended info




Technical info
(IMG:https://metalarea.org/images/spectrogram/2021_Apr/4d8a75254aa5f270758fae17386a086c.png)
Input File: 01. Crushed To Dust Beneath A Goliath.mp3
Channels : 2
Sample Rate : 44100
Precision : 16-bit
Duration : 00:02:26.89 = 6478025 samples = 11017 CDDA sectors
File Size : 6.02M
Bit Rate : 328k
Sample Encoding: MPEG audio (layer I, II or III)
Comments :
Title=Crushed to Dust Beneath a Goliath
Artist=Inner Sphere
Album=Inner Sphere: Outer Reaches Rebellion
Tracknumber=1
Year=2017



Register


Go to the top of the page
  Insert nick Quick quote
+Quote Post

Reply to this topicStart new topic
2 User(s) are reading this topic (2 Guests and 0 Anonymous Users)
0 Members:

 



- Lo-Fi Version Support form
Copyrights and abuse reports form
Time is now: 18th April 2021 - 12:48:24