Welcome Guest ( Log In | Register )

> Releases Upload / Добавление релизов

Добавить релиз тут / Click here to add release
Рекомендованные обменники / Recommended file shares

 
Reply to this topicStart new topic
> Vølus - The Vermin Speak [demo] (2018), Black/Death Metal/Noise
post Apr 6 2021, 11:03:16
Post #1

Правь статус, ####!111
**************
Group: Металариец
Posts: 4,263
Releases: 161
From: MoscoW
On Forums: 14 years 4 months
Thanks: 4317 time(s)
Russian Federation


(IMG:https://metalarea.org/images/audiocovers/2021_Apr/acov_tid349333_thumb.jpg)

*Artist: Vølus
*Album: The Vermin Speak [demo]
*Year: 2018
*Genre: Black/Death Metal/Noise
*Country: United States (IMG:https://metalarea.org/forum/style_images/flags/United%20States.png)
*Format: mp3@CBR320kbps
*Size: 19MB

Tracklist:
01. The Vermin Speak 02:11
02. Fall Of Gnosis 02:26
03. Thrown To The Abyss (Bonus Track) 01:06
04. The Groaning Undeath (Bonus Track) 02:35
******************************
Total playing time: 8:18

Extended info



Technical info
(IMG:https://metalarea.org/images/spectrogram/2021_Apr/3ca0a9f751150abeba9a973f25986618.png)
Input File: 01. The Vermin Speak.mp3
Channels : 2
Sample Rate : 44100
Precision : 16-bit
Duration : 00:02:12.08 = 5824816 samples = 9906.15 CDDA sectors
File Size : 5.38M
Bit Rate : 326k
Sample Encoding: MPEG audio (layer I, II or III)
Comments :
Title=The Vermin Speak
Artist=Vargheist Records
Album=VØLUS - The Vermin Speak
Tracknumber=1
Year=2020



Register


Go to the top of the page
  Insert nick Quick quote
+Quote Post

Reply to this topicStart new topic
1 User(s) are reading this topic (1 Guests and 0 Anonymous Users)
0 Members:

 



- Lo-Fi Version Support form
Copyrights and abuse reports form
Time is now: 18th April 2021 - 12:55:54