Welcome Guest ( Log In | Register )

> Releases Upload / Добавление релизов

Добавить релиз тут / Click here to add release
Рекомендованные обменники / Recommended file shares

> Sphere - π (2021), Atmospheric Black Metal (D5)
post Apr 6 2021, 15:43:33
Post #1

Правь статус, ####!616
**************
Group: Металариец
Posts: 6,058
Releases: 4557
From: 55°35’N 38°08’E
On Forums: 12 years 9 months
Thanks: 84989 time(s)
Unknown


(IMG:https://metalarea.org/images/audiocovers/2021_Apr/acov_tid349343_thumb.jpg)

*Artist: Sphere
*Album: π
*Year: 2021
*Genre: Atmospheric Black Metal
*Country: France (IMG:https://metalarea.org/forum/style_images/flags/France.png)
*Format: mp3@CBR320kbps
*Size: 174MB

Tracklist:
1. Projection 08:30
2. π 11:30
3. Invocation (featuring Déhà) 18:00
4. φ 08:30
5. La dernière décimale 11:30
6. Transmission (featuring Bornyhake) 18:00
******************************
Total playing time: 1:16:00



Technical info
(IMG:https://metalarea.org/images/spectrogram/2021_Apr/9d25f72a7e4adb5f241d26159484b655.png)
Input File: 01 Projection.mp3
Channels : 2
Sample Rate : 44100
Precision : 16-bit
Duration : 00:08:30.15 = 22497615 samples = 38261.2 CDDA sectors
File Size : 20.5M
Bit Rate : 322k
Sample Encoding: MPEG audio (layer I, II or III)
Comments :
Title=Projection
Artist=SPHERE
Album=π
Tracknumber=1
Year=2021
Genre=Black Metal



Register


Go to the top of the page
  Insert nick Quick quote
+Quote Post
 
Start new topic
Replies (1 - 3)
post Apr 7 2021, 19:44:12
Post #2

Group: Подсевший
Posts: 43
Releases: 0
From: The Road...
On Forums: 13 years 7 months
Thanks: 14 time(s)
Canada


Anyone have a link to Sphere - La Symphonie des Sphères in 320? Thanks in advance!


Thanks:
(1) Krosis,
Go to the top of the page
  Insert nick Quick quote
+Quote Post
post Apr 8 2021, 21:45:55
Post #3

Пять Литров
*****
Group: Металариец
Posts: 421
Releases: 71
From: italy
On Forums: 12 years 9 months
Thanks: 1565 time(s)
Italy


QUOTE(oden44 @ Apr 7 2021, 22:44:12) *
Anyone have a link to Sphere - La Symphonie des Sphères in 320? Thanks in advance!



I have it, do you want me to upload it?
Go to the top of the page
  Insert nick Quick quote
+Quote Post
post Apr 9 2021, 16:39:35
Post #4

Group: Подсевший
Posts: 43
Releases: 0
From: The Road...
On Forums: 13 years 7 months
Thanks: 14 time(s)
Canada


QUOTE(murian @ Apr 8 2021, 13:45:55) *
I have it, do you want me to upload it?


I would! Thanks in advance!
Go to the top of the page
  Insert nick Quick quote
+Quote Post

Reply to this topicStart new topic
2 User(s) are reading this topic (2 Guests and 0 Anonymous Users)
0 Members:

 



- Lo-Fi Version Support form
Copyrights and abuse reports form
Time is now: 18th April 2021 - 22:25:12