Welcome Guest ( Log In | Register )

> Releases Upload / Добавление релизов

Добавить релиз тут / Click here to add release
Рекомендованные обменники / Recommended file shares

> The Anointing Maelstrom - Swirling Herald Of Death (2021), Black/Death Metal
post Apr 6 2021, 16:59:32
Post #1

Правь статус, ####!111
**************
Group: Металариец
Posts: 25,787
Releases: 18466
From: Г.Харьков
On Forums: 8 years 11 months
Thanks: 364569 time(s)
Unknown


(IMG:https://metalarea.org/images/audiocovers/2021_Apr/acov_tid349344_thumb.jpg)

*Artist: The Anointing Maelstrom
*Album: Swirling Herald Of Death
*Year: 2021
*Genre: Black/Death Metal
*Country: United States (IMG:https://metalarea.org/forum/style_images/flags/United%20States.png)
*Format: mp3@CBR320kbps
*Size: 77MB

Tracklist:
1. The Impending Death (Intro) 02:05
2. Swirling Herald of Death 07:38
3. Funnels of Destruction 04:53
4. Winds of Carnage 05:48
5. Cataclysm and Vile Decay (remastered) 03:08
6. Torn Asunder by the Malevolent Vortex 09:52
******************************
Total playing time: 33:24



Extended info
D.- Guitars, Vocals, Drums, Noise/ Sampling
B.- Bass Guitar


Technical info
(IMG:https://metalarea.org/images/spectrogram/2021_Apr/4be83e11752e24c94da66771246b8777.png)
Input File: 06. Torn Asunder by the Malevolent Vortex.mp3
Channels : 2
Sample Rate : 44100
Precision : 16-bit
Duration : 00:09:52.52 = 26130220 samples = 44439.1 CDDA sectors
File Size : 23.7M
Bit Rate : 320k
Sample Encoding: MPEG audio (layer I, II or III)
Comments :
Title=Torn Asunder by the Malevolent Vortex
Artist=The Anointing Maelstrom
Album=Swirling Herald of Death
Tracknumber=06
Year=2021



Register


Go to the top of the page
  Insert nick Quick quote
+Quote Post
 
Start new topic
Replies (1 - 1)
post Apr 8 2021, 19:38:07
Post #2

Пять Литров
*****
Group: Металариец
Posts: 421
Releases: 71
From: italy
On Forums: 12 years 9 months
Thanks: 1565 time(s)
Italy


terrible
Go to the top of the page
  Insert nick Quick quote
+Quote Post

Reply to this topicStart new topic
1 User(s) are reading this topic (1 Guests and 0 Anonymous Users)
0 Members:

 



- Lo-Fi Version Support form
Copyrights and abuse reports form
Time is now: 18th April 2021 - 21:17:53