Welcome Guest ( Log In | Register )

> Releases Upload / Добавление релизов

Добавить релиз тут / Click here to add release
Рекомендованные обменники / Recommended file shares

 
Reply to this topicStart new topic
> Dead Buture & Zozo & Disfigured Bodily Remaints - Dead Buture X Zozo X Disfigured Bodily Remaints [split] (2021), Death Metal | Death Metal | Death Metal
post Apr 6 2021, 17:54:24
Post #1

Правь статус, ####!111
**************
Group: Металариец
Posts: 3,895
Releases: 3555
From: Одесса
On Forums: 12 years 10 months
Thanks: 37984 time(s)
Ukraine


(IMG:http://metalarea.org/images/audiocovers/2021_Apr/acov_tid349345_thumb.jpg)

*Artist: Dead Buture & Zozo & Disfigured Bodily Remaints
*Album: Dead Buture X Zozo X Disfigured Bodily Remaints [split]
*Year: 2021
*Genre: Death Metal | Death Metal | Death Metal
*Country: United States (IMG:http://metalarea.org/forum/style_images/flags/United%20States.png) | Unknown (IMG:http://metalarea.org/forum/style_images/flags/Unknown.png) | Unknown (IMG:http://metalarea.org/forum/style_images/flags/Unknown.png)
*Format: mp3@CBR320kbps
*Size: 63MB

Tracklist:
Dead Buture:
1. Nightmares from in Ed's Barn 09:32
2. Blood Trail Harvester 02:57
3. Cannibalistic Maniac 02:09
Disfigured Bodily Remaints:
4. Gorilla Gore 02:40
5. Tearing Flesh from Bone 02:30
6. Writng in Afterbirth 02:45
ZoZo:
7. BloodShot 04:09
******************************
Total playing time: 26:42



Extended info
flac rip


Technical info
(IMG:http://metalarea.org/images/spectrogram/2021_Apr/c117a365738a3304bf677fc76465ade5.png)
Input File: 06. Writng in Afterbirth - Disfigured Bodily Remaints.mp3
Channels : 2
Sample Rate : 44100
Precision : 16-bit
Duration : 00:02:45.76 = 7309972 samples = 12431.9 CDDA sectors
File Size : 6.63M
Bit Rate : 320k
Sample Encoding: MPEG audio (layer I, II or III)
Comments :
Title=Writng in Afterbirth
Artist=Disfigured Bodily Remaints
Album=Dead Buture x ZoZo x Disfigured Bodily Remaints (Split)
Tracknumber=6
Year=2021



Register


Thanks:
Go to the top of the page
  Insert nick Quick quote
+Quote Post

Reply to this topicStart new topic
1 User(s) are reading this topic (1 Guests and 0 Anonymous Users)
0 Members:

 



- Lo-Fi Version Support form
Copyrights and abuse reports form
Time is now: 18th April 2021 - 22:33:44