Welcome Guest ( Log In | Register )

 
Reply to this topicStart new topic
> Tesa - G H O S T (2015), Progressive Sludge/Post-Hardcore (D6)
post Apr 6 2021, 19:53:26
Post #1

Маньяк
**********
Group: Металариец
Posts: 1,406
Releases: 115
On Forums: 7 years 6 months
Thanks: 3357 time(s)
Unknown


(IMG:https://metalarea.org/images/audiocovers/2021_Apr/acov_tid349348_thumb.jpg)

*Artist: Tesa
*Album: G H O S T
*Year: 2015
*Genre: Progressive Sludge/Post-Hardcore
*Country: Latvia (IMG:https://metalarea.org/forum/style_images/flags/Latvia.png)
*Format: mp3@CBR320kbps
*Size: 97MB

Tracklist:
01. g 06:18
02. h 07:06
03. o 11:47
04. s 02:46
05. t 12:46
******************************
Total playing time: 40:43

Extended info


Technical info
(IMG:https://metalarea.org/images/spectrogram/2021_Apr/2323964565a1f20c6c676c76e5d54eff.png)
Input File: 05 t.mp3
Channels : 2
Sample Rate : 44100
Precision : 16-bit
Duration : 00:12:46.61 = 33807413 samples = 57495.6 CDDA sectors
File Size : 31.4M
Bit Rate : 327k
Sample Encoding: MPEG audio (layer I, II or III)
Comments :
Title=T
Artist=Tesa
Album=Ghost
Tracknumber=5
Year=2015
Genre=post-rock



Register


Go to the top of the page
  Insert nick Quick quote
+Quote Post

Reply to this topicStart new topic
1 User(s) are reading this topic (1 Guests and 0 Anonymous Users)
0 Members:

 



- Lo-Fi Version Support form
Copyrights and abuse reports form
Time is now: 18th April 2021 - 21:47:34