Welcome Guest ( Log In | Register )

> Releases Upload / Добавление релизов

Добавить релиз тут / Click here to add release
Рекомендованные обменники / Recommended file shares

 
Reply to this topicStart new topic
> Ancient Oak - Fight The Beast (2014), Black Metal (D)
post Apr 6 2021, 19:54:19
Post #1

Правь статус, ####!111
**************
Group: Металариец
Posts: 4,263
Releases: 161
From: MoscoW
On Forums: 14 years 4 months
Thanks: 4317 time(s)
Russian Federation


(IMG:https://metalarea.org/images/audiocovers/2021_Apr/acov_tid349349_thumb.jpg)

*Artist: Ancient Oak
*Album: Fight The Beast
*Year: 2014
*Genre: Black Metal
*Country: Russian Federation (IMG:https://metalarea.org/forum/style_images/flags/Russian%20Federation.png)
*Format: mp3@CBR320kbps
*Size: 57MB

Tracklist:
01. Raven's Flight 04:20
02. Fight The Beast 06:50
03. Two Corpses 04:52
04. Remains & Regrets 05:44
05. One Corpse 07:39
******************************
Total playing time: 29:25

Extended info



Technical info
(IMG:https://metalarea.org/images/spectrogram/2021_Apr/d73a86ebfcb451f821cb38fec2ead355.png)
Input File: 01. Raven\'s Flight.mp3
Channels : 2
Sample Rate : 44100
Precision : 16-bit
Duration : 00:04:20.05 = 11468293 samples = 19503.9 CDDA sectors
File Size : 10.4M
Bit Rate : 320k
Sample Encoding: MPEG audio (layer I, II or III)
Comments :
Title=Raven's Flight
Artist=Ancient Oak
Album=Fight The Beast
Tracknumber=1
Year=2014



Register


Go to the top of the page
  Insert nick Quick quote
+Quote Post

Reply to this topicStart new topic
2 User(s) are reading this topic (2 Guests and 0 Anonymous Users)
0 Members:

 



- Lo-Fi Version Support form
Copyrights and abuse reports form
Time is now: 18th April 2021 - 12:55:14