Welcome Guest ( Log In | Register )

> Releases Upload / Добавление релизов

Добавить релиз тут / Click here to add release
Рекомендованные обменники / Recommended file shares

> Tesa - Control (2020), Progressive Sludge/Post-Hardcore (D6)
post Apr 6 2021, 19:57:58
Post #1

Маньяк
**********
Group: Металариец
Posts: 1,406
Releases: 115
On Forums: 7 years 6 months
Thanks: 3355 time(s)
Unknown


(IMG:https://metalarea.org/images/audiocovers/2021_Apr/acov_tid349350_thumb.jpg)

*Artist: Tesa
*Album: Control
*Year: 2020
*Genre: Progressive Sludge/Post-Hardcore
*Country: Latvia (IMG:https://metalarea.org/forum/style_images/flags/Latvia.png)
*Format: mp3@CBR320kbps
*Size: 97MB

Tracklist:
01. control 1 09:35
02. control 2 07:52
03. control 3 02:30
04. control 4 09:34
05. control 5 07:45
06. control 6 04:41
******************************
Total playing time: 41:57

Extended info


Technical info
(IMG:https://metalarea.org/images/spectrogram/2021_Apr/17f4a48e6dc90b01cb8beb72da5083bb.png)
Input File: 05 - Control 5.mp3
Channels : 2
Sample Rate : 44100
Precision : 16-bit
Duration : 00:07:45.84 = 20543720 samples = 34938.3 CDDA sectors
File Size : 18.7M
Bit Rate : 321k
Sample Encoding: MPEG audio (layer I, II or III)
Comments :
Title=Control 5
Artist=Tesa
Album=Control
Tracknumber=05
Year=2020
Genre=Progressive / Sludge Metal / Post-Hardcore
Discnumber=1



Register


Go to the top of the page
  Insert nick Quick quote
+Quote Post
 
Start new topic
Replies (1 - 2)
post Apr 7 2021, 05:48:35
Post #2

Пять Литров
*****
Group: Металариец
Posts: 489
Releases: 0
On Forums: 14 years 3 months
Thanks: 64 time(s)
Russian Federation


Монотонно-меланхоличный материал в хорошем смысле слова. Создает осеннее настроение.
Go to the top of the page
  Insert nick Quick quote
+Quote Post
post Apr 7 2021, 10:09:06
Post #3

Пять Литров
*****
Group: Металариец
Posts: 429
Releases: 0
On Forums: 3 years 3 months
Thanks: 77 time(s)
Unknown


Thanks!

P.s: Mastered by James Plotkin at Plotkinworks, Philadelphia, PA
(IMG:style_emoticons/default/18.gif)
Go to the top of the page
  Insert nick Quick quote
+Quote Post

Reply to this topicStart new topic
2 User(s) are reading this topic (2 Guests and 0 Anonymous Users)
0 Members:

 



- Lo-Fi Version Support form
Copyrights and abuse reports form
Time is now: 18th April 2021 - 13:19:41