Welcome Guest ( Log In | Register )

> Releases Upload / Добавление релизов

Добавить релиз тут / Click here to add release
Рекомендованные обменники / Recommended file shares

 
Reply to this topicStart new topic
> Nivatakavachas - Ascraedunum (2021), Atmospheric Black/Death Metal
post Apr 6 2021, 20:16:12
Post #1

Правь статус, ####!111
**************
Group: Металариец
Posts: 25,775
Releases: 18452
From: Г.Харьков
On Forums: 8 years 11 months
Thanks: 364414 time(s)
Unknown


(IMG:https://metalarea.org/images/audiocovers/2021_Apr/acov_tid349351_thumb.jpg)

*Artist: Nivatakavachas
*Album: Ascraedunum
*Year: 2021
*Genre: Atmospheric Black/Death Metal
*Country: Switzerland (IMG:https://metalarea.org/forum/style_images/flags/Switzerland.png)
*Format: mp3@CBR320kbps
*Size: 76MB

Tracklist:
1. Capnomancy 09:28
2. Oneiromancy 09:57
3. Hepatoscopy 14:28
******************************
Total playing time: 33:53




Extended info
Bornyhake Everything
See also: Ancient Moon, Astral Silence, Borgne, Cakewet, Diurnal, Enoid, Excreta, Lypektomy, Manii, My Death Belongs to You, Porifice, Pure, ex-Gerbophilia, ex-Haine, ex-Krigar, ex-Organ Trails, Canal of Mash Addle, Decomposition, Snorre, The Two Boys Sandwich Club, ex-ChokingOnBile, ex-Cryfemal, ex-Kawir, ex-Oculus, ex-Ravnkald, ex-Serpens Luminis, ex-Darvaza (live), ex-Deathrow (live), ex-Schammasch (live), ex-Ass of Spades, ex-Jante Alu





Technical info
(IMG:https://metalarea.org/images/spectrogram/2021_Apr/845d05042dd4ab05ab9c2c33d57cf1e1.png)
Input File: 03 - Hepatoscopy.mp3
Channels : 2
Sample Rate : 44100
Precision : 16-bit
Duration : 00:14:28.57 = 38303805 samples = 65142.5 CDDA sectors
File Size : 34.7M
Bit Rate : 320k
Sample Encoding: MPEG audio (layer I, II or III)
Comments :
Title=Hepatoscopy
Artist=Nivatakavachas
Album=Ascraedunum
Tracknumber=3
Year=2021



Register


Go to the top of the page
  Insert nick Quick quote
+Quote Post

Reply to this topicStart new topic
2 User(s) are reading this topic (2 Guests and 0 Anonymous Users)
0 Members:

 



- Lo-Fi Version Support form
Copyrights and abuse reports form
Time is now: 18th April 2021 - 12:22:39