Welcome Guest ( Log In | Register )

> Releases Upload / Добавление релизов

Добавить релиз тут / Click here to add release
Рекомендованные обменники / Recommended file shares

> Noah Angel - Endless Suffering Into The Dark Skies [ep] (2021), Acoustic/Atmospheric Black Metal
post Apr 6 2021, 20:28:51
Post #1

Malum dominus omnium
***
Group: Завсегдатай
Posts: 290
Releases: 208
On Forums: 1 year 1 month
Thanks: 4048 time(s)
Vatican City


(IMG:https://metalarea.org/images/audiocovers/2021_Apr/acov_tid349352_thumb.jpg)

*Artist: Noah Angel
*Album: Endless Suffering Into The Dark Skies [ep]
*Year: 2021
*Genre: Acoustic/Atmospheric Black Metal
*Country: Canada (IMG:https://metalarea.org/forum/style_images/flags/Canada.png)
*Format: mp3@CBR320kbps
*Size: 87MB

Tracklist:
1. Immortality Of Dark Desire 03:48
2. Solitude 15:06
3. Endless Suffering Into The Dark Skies 18:55
******************************
Total playing time: 37:49


(IMG:https://metalarea.org/images/youtube.png)

Technical info
(IMG:https://metalarea.org/images/spectrogram/2021_Apr/0c07e74ad459c64e4493ef15ee1e01c6.png)
Input File: Noah Angel - Solitude.mp3
Channels : 2
Sample Rate : 48000
Precision : 16-bit
Duration : 00:15:06.15 = 43495344 samples ~ 67961.5 CDDA sectors
File Size : 36.2M
Bit Rate : 320k
Sample Encoding: MPEG audio (layer I, II or III)
Comments :
Title=Solitude
Album=Endless Suffering Into The Dark Skies
Tracknumber=2
Year=2021
Genre=Acoustic Black Metal



Register


Go to the top of the page
  Insert nick Quick quote
+Quote Post
 
Start new topic
Replies (1 - 1)
post Apr 8 2021, 14:09:42
Post #2

Четыре Литра
****
Group: Металариец
Posts: 340
Releases: 3
From: Москва
On Forums: 13 years 1 week
Thanks: 248 time(s)
Russian Federation


Это замечательный альбом, но почему в жанрах стоит блэк? Весь альбом акустический.


Thanks:
(1) Nemez,
Go to the top of the page
  Insert nick Quick quote
+Quote Post

Reply to this topicStart new topic
2 User(s) are reading this topic (2 Guests and 0 Anonymous Users)
0 Members:

 



- Lo-Fi Version Support form
Copyrights and abuse reports form
Time is now: 19th April 2021 - 17:27:20