Welcome Guest ( Log In | Register )

> Phantasmagore - Abominations... [demo] (2019), Death Metal (D5)
post Apr 6 2021, 23:41:24
Post #1

Два Литра
**
Group: Завсегдатай
Posts: 144
Releases: 66
On Forums: 7 months 7 hours
Thanks: 586 time(s)
Unknown


(IMG:https://metalarea.org/images/audiocovers/2021_Apr/acov_tid349358_thumb.jpg)

*Artist: Phantasmagore
*Album: Abominations... [demo]
*Year: 2019
*Genre: Death Metal
*Country: Chile (IMG:https://metalarea.org/forum/style_images/flags/Chile.png)
*Format: mp3@CBR320kbps
*Size: 35MB

Tracklist:
1. Master Crusher
2. Assimilation of the Intruder Cell
3. BloodFreak (Necrophagia cover)
******************************
Total playing time: 16:44



Technical info
(IMG:https://metalarea.org/images/spectrogram/2021_Apr/225c2245a53f107f3e70a01cc5887a14.png)
Input File: 1. Master Crusher.mp3
Channels : 2
Sample Rate : 44100
Precision : 16-bit
Duration : 00:05:57.56 = 15768264 samples = 26816.8 CDDA sectors
File Size : 14.3M
Bit Rate : 320k
Sample Encoding: MPEG audio (layer I, II or III)



Register


Go to the top of the page
  Insert nick Quick quote
+Quote Post
 
Start new topic
Replies (1 - 1)
post Apr 10 2021, 10:04:34
Post #2

Два Литра
**
Group: Завсегдатай
Posts: 118
Releases: 0
On Forums: 1 year 2 weeks
Thanks: 7 time(s)
Unknown


Thanks! Could you share in FLAC?
Go to the top of the page
  Insert nick Quick quote
+Quote Post

Reply to this topicStart new topic
1 User(s) are reading this topic (1 Guests and 0 Anonymous Users)
0 Members:

 



- Lo-Fi Version Support form
Copyrights and abuse reports form
Time is now: 18th April 2021 - 22:13:16