Welcome Guest ( Log In | Register )

> Releases Upload / Добавление релизов

Добавить релиз тут / Click here to add release
Рекомендованные обменники / Recommended file shares

 
Reply to this topicStart new topic
> Blaine Rohmer - Reflections On A Lake [ep] (2021), Dark/Gothic Metal (D7)
post Apr 6 2021, 23:43:03
Post #1

Правь статус, ####!111
**************
Group: Металариец
Posts: 25,787
Releases: 18466
From: Г.Харьков
On Forums: 8 years 11 months
Thanks: 364569 time(s)
Unknown


(IMG:https://metalarea.org/images/audiocovers/2021_Apr/acov_tid349359_thumb.jpg)

*Artist: Blaine Rohmer
*Album: Reflections On A Lake [ep]
*Year: 2021
*Genre: Dark/Gothic Metal
*Country: Belarus (IMG:https://metalarea.org/forum/style_images/flags/Belarus.png)
*Format: mp3@CBR320kbps
*Size: 44MB

Tracklist:
01. The Harbinger of Fate 03:36
02. Above The Fog 04:59
03. To See Our Graves Take Form 04:33
04. The Resonance of God 05:51
******************************
Total playing time: 18:59




Extended info
Gennadiy Kharitonov Everything (2010-present)
See also: ex-Wartha


Technical info
(IMG:https://metalarea.org/images/spectrogram/2021_Apr/20ac216ad20278836675ba7cdf53bd53.png)
Input File: 04 - The Resonance of God.mp3
Channels : 2
Sample Rate : 44100
Precision : 16-bit
Duration : 00:05:51.00 = 15479100 samples = 26325 CDDA sectors
File Size : 14.2M
Bit Rate : 323k
Sample Encoding: MPEG audio (layer I, II or III)
Comments :
Title=The Resonance of God
Artist=Blaine Rohmer
Album=Reflections on a Lake
Tracknumber=4
Year=2021-04-07
Genre=Metal
Discnumber=1



Register


Go to the top of the page
  Insert nick Quick quote
+Quote Post

Reply to this topicStart new topic
1 User(s) are reading this topic (1 Guests and 0 Anonymous Users)
0 Members:

 



- Lo-Fi Version Support form
Copyrights and abuse reports form
Time is now: 18th April 2021 - 21:10:23