Welcome Guest ( Log In | Register )

> Releases Upload / Добавление релизов

Добавить релиз тут / Click here to add release
Рекомендованные обменники / Recommended file shares

 
Reply to this topicStart new topic
> Sněť - Demo [demo] (2019), Death Metal
post Apr 6 2021, 23:47:39
Post #1

Два Литра
**
Group: Завсегдатай
Posts: 144
Releases: 66
On Forums: 6 months 4 weeks
Thanks: 585 time(s)
Unknown


(IMG:https://metalarea.org/images/audiocovers/2021_Apr/acov_tid349360_thumb.jpg)

*Artist: Sněť
*Album: Demo [demo]
*Year: 2019
*Genre: Death Metal
*Country: Czech Republic (IMG:https://metalarea.org/forum/style_images/flags/Czech%20Republic.png)
*Format: mp3@CBR320kbps
*Size: 13MB

Tracklist:
1. Intoxikace
2. Obří kat
******************************
Total playing time: 6:09



Technical info
(IMG:https://metalarea.org/images/spectrogram/2021_Apr/67024198fd4aa1dbff617b198ef5769d.png)
Input File: 1. Intoxikace.mp3
Channels : 2
Sample Rate : 44100
Precision : 16-bit
Duration : 00:02:40.51 = 7078271 samples = 12037.9 CDDA sectors
File Size : 6.42M
Bit Rate : 320k
Sample Encoding: MPEG audio (layer I, II or III)



Register


Go to the top of the page
  Insert nick Quick quote
+Quote Post

Reply to this topicStart new topic
2 User(s) are reading this topic (2 Guests and 0 Anonymous Users)
0 Members:

 



- Lo-Fi Version Support form
Copyrights and abuse reports form
Time is now: 18th April 2021 - 13:37:23