Welcome Guest ( Log In | Register )

 
Reply to this topicStart new topic
> Morbid Cruelty - Demo I [demo] (2019), Death/Thrash Metal
post Apr 7 2021, 00:46:41
Post #1

Два Литра
**
Group: Завсегдатай
Posts: 144
Releases: 66
On Forums: 7 months 7 hours
Thanks: 586 time(s)
Unknown


(IMG:https://metalarea.org/images/audiocovers/2021_Apr/acov_tid349361_thumb.jpg)

*Artist: Morbid Cruelty
*Album: Demo I [demo]
*Year: 2019
*Genre: Death/Thrash Metal
*Country: Chile (IMG:https://metalarea.org/forum/style_images/flags/Chile.png)
*Format: mp3@CBR320kbps
*Size: 30MB

Tracklist:
1. Horrid Death
2. Red Ripper
3. Abysmal Terror
******************************
Total playing time: 4:38



Technical info
(IMG:https://metalarea.org/images/spectrogram/2021_Apr/3826bc768f92ae52ab2a71b265fbad5f.png)
Input File: 1. Horrid Death.mp3
Channels : 2
Sample Rate : 44100
Precision : 16-bit
Duration : 00:04:38.09 = 12263681 samples = 20856.6 CDDA sectors
File Size : 11.1M
Bit Rate : 320k
Sample Encoding: MPEG audio (layer I, II or III)



Register


Go to the top of the page
  Insert nick Quick quote
+Quote Post

Reply to this topicStart new topic
1 User(s) are reading this topic (1 Guests and 0 Anonymous Users)
0 Members:

 



- Lo-Fi Version Support form
Copyrights and abuse reports form
Time is now: 18th April 2021 - 22:46:14