Welcome Guest ( Log In | Register )

 
Reply to this topicStart new topic
> Strigoi - Strigoi [ep] (2018), Death/Thrash/Black Metal (D5)
post Apr 7 2021, 01:01:42
Post #1

Два Литра
**
Group: Завсегдатай
Posts: 144
Releases: 66
On Forums: 7 months 7 hours
Thanks: 586 time(s)
Unknown


(IMG:https://metalarea.org/images/audiocovers/2021_Apr/acov_tid349362_thumb.jpg)

*Artist: Strigoi
*Album: Strigoi [ep]
*Year: 2018
*Genre: Death/Thrash/Black Metal
*Country: Chile (IMG:https://metalarea.org/forum/style_images/flags/Chile.png)
*Format: mp3@CBR320kbps
*Size: 33MB

Tracklist:
1. Introduction (Voivode's Path)
2. Spectral Chimes
3. Sepulchral Earth's Fumes
4. Volcanic Miasma
******************************
Total playing time: 15:57



Technical info
(IMG:https://metalarea.org/images/spectrogram/2021_Apr/24b6730d402e598a40d122db53761e5c.png)
Input File: 2. Spectral Chimes.mp3
Channels : 2
Sample Rate : 44100
Precision : 16-bit
Duration : 00:04:38.27 = 12271751 samples = 20870.3 CDDA sectors
File Size : 11.1M
Bit Rate : 320k
Sample Encoding: MPEG audio (layer I, II or III)



Register


Go to the top of the page
  Insert nick Quick quote
+Quote Post

Reply to this topicStart new topic
1 User(s) are reading this topic (1 Guests and 0 Anonymous Users)
0 Members:

 



- Lo-Fi Version Support form
Copyrights and abuse reports form
Time is now: 18th April 2021 - 21:56:30