Welcome Guest ( Log In | Register )

> Releases Upload / Добавление релизов

Добавить релиз тут / Click here to add release
Рекомендованные обменники / Recommended file shares

 
Reply to this topicStart new topic
> Ares Kult - Ritual Of War Declaration (2020), Black/Death/Thrash Metal
post Apr 7 2021, 01:14:14
Post #1

Правь статус, ####!616
**************
Group: Металариец
Posts: 6,054
Releases: 4550
From: 55°35’N 38°08’E
On Forums: 12 years 9 months
Thanks: 84962 time(s)
Unknown


(IMG:https://metalarea.org/images/audiocovers/2021_Apr/acov_tid349363_thumb.jpg)

*Artist: Ares Kult
*Album: Ritual Of War Declaration
*Year: 2020
*Genre: Black/Death/Thrash Metal
*Country: Chile (IMG:https://metalarea.org/forum/style_images/flags/Chile.png)
*Format: mp3@CBR320kbps
*Size: 96MB

Tracklist:
1.Intro / Ares Kult 07:05
2.Necrovisions 05:09
3.Peste 02:10
4.Will of Mayhem 05:51
5.Empalamiento 02:36
6.Dark Forces 03:21
7.Enemy 04:47
8.1553 00:45
9.Unholy Genocide 05:42
10.Outro 03:40
******************************
Total playing time: 41:06

(IMG:https://metalarea.org/images/youtube.png)


Technical info
(IMG:https://metalarea.org/images/spectrogram/2021_Apr/1a619d7652fa035702f3456f46449f68.png)
Input File: 02 Necrovisions.mp3
Channels : 2
Sample Rate : 44100
Precision : 16-bit
Duration : 00:05:09.96 = 13669368 samples = 23247.2 CDDA sectors
File Size : 12.5M
Bit Rate : 323k
Sample Encoding: MPEG audio (layer I, II or III)
Comments :
Title=Necrovisions
Artist=Ares Kult
Album=Ritual of War Declaration
Tracknumber=2
Year=2020
Genre=Metal



Register


Go to the top of the page
  Insert nick Quick quote
+Quote Post

Reply to this topicStart new topic
2 User(s) are reading this topic (2 Guests and 0 Anonymous Users)
0 Members:

 



- Lo-Fi Version Support form
Copyrights and abuse reports form
Time is now: 18th April 2021 - 13:00:39