Welcome Guest ( Log In | Register )

> Releases Upload / Добавление релизов

Добавить релиз тут / Click here to add release
Рекомендованные обменники / Recommended file shares

 
Reply to this topicStart new topic
> Metaphobic - Demo 2021 [demo] (2021), Death Metal
post Apr 7 2021, 01:35:23
Post #1

Правь статус, ####!616
**************
Group: Металариец
Posts: 6,054
Releases: 4550
From: 55°35’N 38°08’E
On Forums: 12 years 9 months
Thanks: 84961 time(s)
Unknown


(IMG:https://metalarea.org/images/audiocovers/2021_Apr/acov_tid349364_thumb.jpg)

*Artist: Metaphobic
*Album: Demo 2021 [demo]
*Year: 2021
*Genre: Death Metal
*Country: United States (IMG:https://metalarea.org/forum/style_images/flags/United%20States.png)
*Format: mp3@CBR320kbps
*Size: 30MB

Tracklist:
1.Abhorrent Extirpation 02:41
2.Veiled Horizons 04:54
3.Confluence of Evil 05:00
******************************
Total playing time: 12:35




Technical info
(IMG:https://metalarea.org/images/spectrogram/2021_Apr/5925973a2ab8ea7fc1e36973cdb35e39.png)
Input File: 01 Abhorrent Extirpation.mp3
Channels : 2
Sample Rate : 44100
Precision : 16-bit
Duration : 00:02:41.71 = 7131411 samples = 12128.2 CDDA sectors
File Size : 6.58M
Bit Rate : 325k
Sample Encoding: MPEG audio (layer I, II or III)
Comments :
Title=Abhorrent Extirpation
Artist=Metaphobic
Album=Demo 2021
Tracknumber=1
Year=2021
Genre=Death Metal



Register


Go to the top of the page
  Insert nick Quick quote
+Quote Post

Reply to this topicStart new topic
2 User(s) are reading this topic (2 Guests and 0 Anonymous Users)
0 Members:

 



- Lo-Fi Version Support form
Copyrights and abuse reports form
Time is now: 18th April 2021 - 11:50:41