Welcome Guest ( Log In | Register )

> Releases Upload / Добавление релизов

Добавить релиз тут / Click here to add release
Рекомендованные обменники / Recommended file shares

> The Lion's Daughter - Skin Show (2021), Progressive/Blackened Sludge (D7)
post Apr 7 2021, 02:06:43
Post #1

Правь статус, ####!111
**************
Group: Металариец
Posts: 25,787
Releases: 18466
From: Г.Харьков
On Forums: 8 years 11 months
Thanks: 364566 time(s)
Unknown


(IMG:https://metalarea.org/images/audiocovers/2021_Apr/acov_tid349365_thumb.jpg)

*Artist: The Lion's Daughter
*Album: Skin Show
*Year: 2021
*Genre: Progressive/Blackened Sludge
*Country: United States (IMG:https://metalarea.org/forum/style_images/flags/United%20States.png)
*Format: mp3@CBR320kbps
*Size: 96MB

Tracklist:
1. Become the Night 04:25
2. Curtains 04:16
3. Neon Teeth 04:18
4. Dead in Dreams 03:30
5. Werewolf Hospital 03:21
6. Sex Trap 04:06
7. Snakeface 04:07
8. All Hell Is Mine 03:54
9. Skin Show 04:01
10. The Chemist 06:05
******************************
Total playing time: 42:03




Extended info
Erik Ramsier Drums, Percussion
Scott Fogelbach Vocals
Rick Giordano Guitars, Vocals, Keyboards, Bass



Technical info
(IMG:https://metalarea.org/images/spectrogram/2021_Apr/677ec99037a9f33cf061331bbad0f17d.png)
Input File: 10 - The Chemist.mp3
Channels : 2
Sample Rate : 44100
Precision : 16-bit
Duration : 00:06:06.00 = 16140512 samples = 27449.9 CDDA sectors
File Size : 14.7M
Bit Rate : 321k
Sample Encoding: MPEG audio (layer I, II or III)
Comments :
Title=The Chemist
Artist=The Lion's Daughter
Album=Skin Show
Tracknumber=10
Year=2021



Register


Go to the top of the page
  Insert nick Quick quote
+Quote Post
 
Start new topic
Replies (1 - 1)
post Apr 9 2021, 09:09:32
Post #2

Все люди - черви.
**********
Group: Металариец
Posts: 1,190
Releases: 151
From: Пхёнъян, Северная Корея
On Forums: 8 years 3 months
Thanks: 4711 time(s)
North Korea


Муть не слушабельная (IMG:style_emoticons/default/22.gif)
Go to the top of the page
  Insert nick Quick quote
+Quote Post

Reply to this topicStart new topic
1 User(s) are reading this topic (1 Guests and 0 Anonymous Users)
0 Members:

 



- Lo-Fi Version Support form
Copyrights and abuse reports form
Time is now: 18th April 2021 - 21:03:59