Welcome Guest ( Log In | Register )

> Releases Upload / Добавление релизов

Добавить релиз тут / Click here to add release
Рекомендованные обменники / Recommended file shares

 
Reply to this topicStart new topic
> Runa & Corrosive - Brutalliance [split] (2021), Death/Thrash Metal | Death Metal (D10)
post Apr 7 2021, 02:12:04
Post #1

Правь статус, ####!616
**************
Group: Металариец
Posts: 6,058
Releases: 4557
From: 55°35’N 38°08’E
On Forums: 12 years 9 months
Thanks: 84989 time(s)
Unknown


(IMG:https://metalarea.org/images/audiocovers/2021_Apr/acov_tid349366_thumb.jpg)

*Artist: Runa & Corrosive
*Album: Brutalliance [split]
*Year: 2021
*Genre: Death/Thrash Metal | Death Metal
*Country: Peru (IMG:https://metalarea.org/forum/style_images/flags/Peru.png) | Germany (IMG:https://metalarea.org/forum/style_images/flags/Germany.png)
*Format: mp3@CBR320kbps
*Size: 65MB

Tracklist:
Runa:
1.Prophecy of War 02:51
2.Towards the Cosmic Perfection 03:50
3.Dwellers of Darkness and Ruin 04:31
Corrosive:
4.Demon 03:45
5.Price of Slander 03:53
6.Sleeping End 04:37
7.Your Pain Is My Gain 03:57
******************************
Total playing time: 27:24





Technical info
(IMG:https://metalarea.org/images/spectrogram/2021_Apr/d5f33f4be0c957473437d580a8fdac5a.png)
Input File: 01 Runa - Prophecy of War.mp3
Channels : 2
Sample Rate : 44100
Precision : 16-bit
Duration : 00:02:51.40 = 7558828 samples = 12855.1 CDDA sectors
File Size : 7.03M
Bit Rate : 328k
Sample Encoding: MPEG audio (layer I, II or III)
Comments :
Title=Prophecy of War
Artist=Runa
Album=Brutalliance
Tracknumber=1
Year=2021
Genre=Death Metal



Register


Go to the top of the page
  Insert nick Quick quote
+Quote Post

Reply to this topicStart new topic
1 User(s) are reading this topic (1 Guests and 0 Anonymous Users)
0 Members:

 



- Lo-Fi Version Support form
Copyrights and abuse reports form
Time is now: 18th April 2021 - 22:22:36