Welcome Guest ( Log In | Register )

 
Reply to this topicStart new topic
> Internal Infestation - Demo [demo] (2021), Death/Thrash Metal
post Apr 7 2021, 02:58:04
Post #1

Два Литра
**
Group: Завсегдатай
Posts: 144
Releases: 66
On Forums: 7 months 6 hours
Thanks: 586 time(s)
Unknown


(IMG:https://metalarea.org/images/audiocovers/2021_Apr/acov_tid349367_thumb.jpg)

*Artist: Internal Infestation
*Album: Demo [demo]
*Year: 2021
*Genre: Death/Thrash Metal
*Country: Canada (IMG:https://metalarea.org/forum/style_images/flags/Canada.png)
*Format: mp3@CBR320kbps
*Size: 22MB

Tracklist:
1. Morbid Perversity
2. Aurora Gorealis
3. Chainsaw Bloodlust
******************************
Total playing time: 10:19



Technical info
(IMG:https://metalarea.org/images/spectrogram/2021_Apr/e569c43e7ba200bf204588c06ab1b471.png)
Input File: 2. Aurora Gorealis.mp3
Channels : 2
Sample Rate : 44100
Precision : 16-bit
Duration : 00:03:21.13 = 8869701 samples = 15084.5 CDDA sectors
File Size : 8.04M
Bit Rate : 320k
Sample Encoding: MPEG audio (layer I, II or III)



Register


Go to the top of the page
  Insert nick Quick quote
+Quote Post

Reply to this topicStart new topic
1 User(s) are reading this topic (1 Guests and 0 Anonymous Users)
0 Members:

 



- Lo-Fi Version Support form
Copyrights and abuse reports form
Time is now: 18th April 2021 - 21:20:22