Welcome Guest ( Log In | Register )

> Releases Upload / Добавление релизов

Добавить релиз тут / Click here to add release
Рекомендованные обменники / Recommended file shares

 
Reply to this topicStart new topic
> Wolf King - The Path Of Wrath (2021), Black Metal/Hardcore
post Apr 7 2021, 20:10:18
Post #1

Правь статус, ####!111
**************
Group: Металариец
Posts: 48,645
Releases: 811
On Forums: 11 years 10 months
Thanks: 42838 time(s)
Russian Federation


(IMG:http://metalarea.org/images/audiocovers/2021_Apr/acov_tid349408_thumb.jpg)

*Artist: Wolf King
*Album: The Path Of Wrath
*Year: 2021
*Genre: Black Metal/Hardcore
*Country: United States (IMG:http://metalarea.org/forum/style_images/flags/United%20States.png)
*Format: mp3@CBR320kbps
*Size: 121MB

Tracklist:
1. River Of Light 01:36
2. Messenger Of Death 04:20
3. Wandering Soul 05:49
4. Triumph Of The Slain 03:16
5. Sanctuary 04:06
6. The Oath 05:53
7. The Path Of Wrath 02:34
8. Incantation 06:01
9. Grief Portrait 05:21
10. Beholder 04:10
11. Holy Serpent 03:29
12. Eternal Hunger 06:11
******************************
Total playing time: 52:46



Technical info
(IMG:http://metalarea.org/images/spectrogram/2021_Apr/1582eec35a9d8339719ed24c30be6002.png)
Input File: 01 - River of Light.mp3
Channels : 2
Sample Rate : 44100
Precision : 16-bit
Duration : 00:01:36.00 = 4233600 samples = 7200 CDDA sectors
File Size : 3.92M
Bit Rate : 327k
Sample Encoding: MPEG audio (layer I, II or III)
Comments :
Title=River of Light
Artist=Wolf King
Album=The Path of Wrath
Tracknumber=1
Year=2021-05-03
Genre=GetMetal.club
Discnumber=1



Register


Go to the top of the page
  Insert nick Quick quote
+Quote Post

Reply to this topicStart new topic
2 User(s) are reading this topic (2 Guests and 0 Anonymous Users)
0 Members:

 



- Lo-Fi Version Support form
Copyrights and abuse reports form
Time is now: 19th April 2021 - 16:43:12