Welcome Guest ( Log In | Register )

> Releases Upload / Добавление релизов

Добавить релиз тут / Click here to add release
Рекомендованные обменники / Recommended file shares

 
Reply to this topicStart new topic
> Ancient Relic - Demo [demo] (2021), Raw Black Metal
post Apr 7 2021, 20:37:48
Post #1

Правь статус, ####!616
**************
Group: Металариец
Posts: 6,054
Releases: 4550
From: 55°35’N 38°08’E
On Forums: 12 years 9 months
Thanks: 84961 time(s)
Unknown


(IMG:https://metalarea.org/images/audiocovers/2021_Apr/acov_tid349411_thumb.jpg)

*Artist: Ancient Relic
*Album: Demo [demo]
*Year: 2021
*Genre: Raw Black Metal
*Country: Indonesia (IMG:https://metalarea.org/forum/style_images/flags/Indonesia.png)
*Format: mp3@CBR320kbps
*Size: 20MB

Tracklist:
1.Dwarabirawa 01:59
2.Pangobong I 03:35
3.Pangobong II 02:47
******************************
Total playing time: 8:21



Technical info
(IMG:https://metalarea.org/images/spectrogram/2021_Apr/55a21bf96f02d673473cff74a5b5d113.png)
Input File: 02 Pangobong I.mp3
Channels : 2
Sample Rate : 44100
Precision : 16-bit
Duration : 00:03:36.00 = 9525380 samples = 16199.6 CDDA sectors
File Size : 8.74M
Bit Rate : 324k
Sample Encoding: MPEG audio (layer I, II or III)
Comments :
Title=Pangobong I
Artist=Ancient Relic
Album=Demo
Tracknumber=2
Year=2021
Genre=Black Metal



Register


Go to the top of the page
  Insert nick Quick quote
+Quote Post

Reply to this topicStart new topic
1 User(s) are reading this topic (1 Guests and 0 Anonymous Users)
0 Members:

 



- Lo-Fi Version Support form
Copyrights and abuse reports form
Time is now: 18th April 2021 - 12:26:10