Welcome Guest ( Log In | Register )

> Releases Upload / Добавление релизов

Добавить релиз тут / Click here to add release
Рекомендованные обменники / Recommended file shares

 
Reply to this topicStart new topic
> Gabestok - På Herrens Brakmark [ep] (2020), Black Metal/Punk (D5)
post Apr 7 2021, 23:59:03
Post #1

Правь статус, ####!616
**************
Group: Металариец
Posts: 6,054
Releases: 4550
From: 55°35’N 38°08’E
On Forums: 12 years 9 months
Thanks: 84962 time(s)
Unknown


(IMG:https://metalarea.org/images/audiocovers/2021_Apr/acov_tid349414_thumb.jpg)

*Artist: Gabestok
*Album: På Herrens Brakmark [ep]
*Year: 2020
*Genre: Black Metal/Punk
*Country: Denmark (IMG:https://metalarea.org/forum/style_images/flags/Denmark.png)
*Format: mp3@CBR320kbps
*Size: 35MB

Tracklist:
1.Intro 00:49
2.Gode gamle Kharon 02:17
3.Jeg slæber 04:03
4.Omklamret af mørke 03:07
5.Imens du sov 04:27
******************************
Total playing time: 14:43




Technical info
(IMG:https://metalarea.org/images/spectrogram/2021_Apr/680793270e22c40ed37e1074406eb757.png)
Input File: 02 Gode gamle Kharon.mp3
Channels : 2
Sample Rate : 44100
Precision : 16-bit
Duration : 00:02:17.78 = 6076098 samples = 10333.5 CDDA sectors
File Size : 5.58M
Bit Rate : 324k
Sample Encoding: MPEG audio (layer I, II or III)
Comments :
Title=Gode gamle Kharon
Artist=GABESTOK
Album=På herrens brakmark
Tracknumber=2
Year=2020
Genre=Black Metal



Register


Go to the top of the page
  Insert nick Quick quote
+Quote Post

Reply to this topicStart new topic
2 User(s) are reading this topic (2 Guests and 0 Anonymous Users)
0 Members:

 



- Lo-Fi Version Support form
Copyrights and abuse reports form
Time is now: 18th April 2021 - 12:49:47