Welcome Guest ( Log In | Register )

> Releases Upload / Добавление релизов

Добавить релиз тут / Click here to add release
Рекомендованные обменники / Recommended file shares

 
Reply to this topicStart new topic
> Philosopher - Philosopher [ep] (2021), Old School Death Metal (D4)
post Apr 8 2021, 11:05:52
Post #1

Правь статус, ####!111
**************
Group: Металариец
Posts: 25,793
Releases: 18468
From: Г.Харьков
On Forums: 8 years 11 months
Thanks: 364702 time(s)
Unknown


(IMG:https://metalarea.org/images/audiocovers/2021_Apr/acov_tid349416_thumb.jpg)

*Artist: Philosopher
*Album: Philosopher [ep]
*Year: 2021
*Genre: Old School Death Metal
*Country: United States (IMG:https://metalarea.org/forum/style_images/flags/United%20States.png)
*Format: mp3@CBR320kbps
*Size: 42MB

Tracklist:
1. Sadist 05:25
2. Peace Never Lasts 04:00
3. Hail Of Arrows 04:54
4. Fractured Thoughts 04:08
******************************
Total playing time: 18:27



Extended info
Anthony Guitars
Andrew Guitars, Bass, Drums (2014-present)
Levi Vocals (2014-present)


Technical info
(IMG:https://metalarea.org/images/spectrogram/2021_Apr/8a4dd6cc95ad54dc3294852efda45dcd.png)
Input File: 03 - Hail Of Arrows.mp3
Channels : 2
Sample Rate : 44100
Precision : 16-bit
Duration : 00:04:54.00 = 12965400 samples = 22050 CDDA sectors
File Size : 11.9M
Bit Rate : 323k
Sample Encoding: MPEG audio (layer I, II or III)
Comments :
Title=Hail Of Arrows
Artist=Philosopher
Album=Philosopher
Tracknumber=3
Year=2021-04-06
Genre=Metal
Discnumber=1



Register


Go to the top of the page
  Insert nick Quick quote
+Quote Post

Reply to this topicStart new topic
1 User(s) are reading this topic (1 Guests and 0 Anonymous Users)
0 Members:

 



- Lo-Fi Version Support form
Copyrights and abuse reports form
Time is now: 19th April 2021 - 15:35:45