Welcome Guest ( Log In | Register )

> Releases Upload / Добавление релизов

Добавить релиз тут / Click here to add release
Рекомендованные обменники / Recommended file shares

> Primal Fear - I Will Be Gone [ep] (2021), Heavy/Power Metal (D)
post Apr 8 2021, 11:40:09
Post #1

Правь статус, ####!111
**************
Group: Металариец
Posts: 25,793
Releases: 18468
From: Г.Харьков
On Forums: 8 years 11 months
Thanks: 364729 time(s)
Unknown


(IMG:https://metalarea.org/images/audiocovers/2021_Apr/acov_tid349418_thumb.jpg)

*Artist: Primal Fear
*Album: I Will Be Gone [ep]
*Year: 2021
*Genre: Heavy/Power Metal
*Country: Germany (IMG:https://metalarea.org/forum/style_images/flags/Germany.png)
*Format: mp3@CBR320kbps
*Size: 48MB

Tracklist:
1. I Will Be Gone 04:27
2. Vote for No Confidence 06:05
3. Rising Fear 01:39
4. Leave Me Alone 04:04
5. Second to None 04:12
******************************
Total playing time: 20:27



Extended info
Mat Sinner Bass, Vocals (1997-present)
See also: Goddess Shiva, Jorn, Kiske / Somerville, Level 10, Silent Force, Sinner, Mat Sinner, Voodoo Circle, ex-Scheepers (live), ex-Cans
Tom Naumann Guitars (1997-2000, 2003-2007, 2015-present)
See also: Sinner, Mat Sinner, ex-Godiva (live)
Ralf Scheepers Vocals (1997-present)
See also: Scheepers, ex-F.B.I., ex-Blackwelder, ex-Gamma Ray, ex-Tyran' Pace
Magnus Karlsson Guitars (2008-present)
See also: Allen / Olzon, Heart Healer, Kiske / Somerville, Magnus Karlsson's Free Fall, The Codex, The Ferrymen, Planet Alliance, ex-Last Tribe, ex-Midnight Sun, Starbreaker, ex-Allen - Lande, ex-Bob Catley, ex-Scheepers (live), ex-Frontiers All Stars
Alex Beyrodt Guitars (2011-present)
See also: Jorn, Level 10, Silent Force, Mat Sinner, ex-Missa Mercuria, ex-The Sygnet, ex-Wild Axes, Voodoo Circle, ex-Sinner, ex-Princess
Michael Ehré Drums (2019-present)
See also: Basement Prophecy, Gamma Ray, Nitewalk, The Unity, Unisonic (live), ex-Love.Might.Kill, ex-Metalium, ex-Murder One, ex-Pryer, Uli Jon Roth (live), ex-Firewind, ex-Starchild, ex-Hansen & Friends (live), ex-Vinnie Moore (live), ex-Matt Gonzo Roehr, ex-Kee Marcello (live)


Technical info
(IMG:https://metalarea.org/images/spectrogram/2021_Apr/7e9448c391bb62da292e94dafe0ac8ec.png)
Input File: 05 - Second to None.mp3
Channels : 2
Sample Rate : 44100
Precision : 16-bit
Duration : 00:04:12.00 = 11113200 samples = 18900 CDDA sectors
File Size : 10.3M
Bit Rate : 328k
Sample Encoding: MPEG audio (layer I, II or III)
Comments :
Title=Second to None
Artist=Primal Fear
Album=I Will Be Gone
Tracknumber=5
Year=2021-09-04
Discnumber=1



Register


Go to the top of the page
  Insert nick Quick quote
+Quote Post
 
Start new topic
Replies (1 - 7)
post Apr 8 2021, 20:39:51
Post #2

Тридцать лет на борту "Тяжёлого" крейсера
**************
Group: Металариец
Posts: 2,556
Releases: 0
From: Питер
On Forums: 13 years 10 months
Thanks: 798 time(s)
Russian Federation


EP забойный !..
Кроме трека с Тарьей


Thanks:
Go to the top of the page
  Insert nick Quick quote
+Quote Post
post Apr 9 2021, 19:58:55
Post #3

21st Century Schizoid Man
**************
Group: Металариец
Posts: 6,773
Releases: 82
From: Moscow
On Forums: 12 years 11 months
Thanks: 5696 time(s)
Russian Federation


ЦИТАТА(sadmannn @ Apr 8 2021, 22:39:51) *
Кроме трека с Тарьей

Отличный трек, и с, и без.
Go to the top of the page
  Insert nick Quick quote
+Quote Post
post Apr 10 2021, 07:53:44
Post #4

Ъ
**************
Group: Металариец
Posts: 10,566
Releases: 9
On Forums: 12 years 3 months
Thanks: 2161 time(s)
Sweden


2й трек заслуживает внимания, остальное на пару раз послушать.
Go to the top of the page
  Insert nick Quick quote
+Quote Post
post Apr 10 2021, 10:20:01
Post #5

Ёлд ХеллоВяйне
Group Icon
Group: V.I.P
Posts: 31,346
Releases: 144
From: Питер
On Forums: 14 years 5 months
Thanks: 19428 time(s)
Russian Federation


QUOTE(DenisKov @ 10th April 2021 - 09:53:44) *
на пару раз послушать


Это в целом о группе.


Thanks:
Go to the top of the page
  Insert nick Quick quote
+Quote Post
post Apr 10 2021, 22:56:04
Post #6

Маньяк
**********
Group: Металариец
Posts: 1,418
Releases: 0
From: Russian Federation - St.Petersburg
On Forums: 12 years 1 month
Thanks: 381 time(s)
Russian Federation


ЦИТАТА(sadmannn @ Apr 8 2021, 22:39:51) *
EP забойный !..
Кроме трека с Тарьей

Да вроде поют, как и всегда - отлично, но что-то засняли их там страшно, сидят в темноте и как инопланетяне! (IMG:style_emoticons/default/normal_Homerdisgust3.png) (IMG:style_emoticons/default/1488.gif)
Go to the top of the page
  Insert nick Quick quote
+Quote Post
post Apr 10 2021, 23:03:05
Post #7
BAN
Banned till
Jan 28 2295, 09:34:44



Смейтесь,но я вспомнил Дио .Только за это плюс.
Но я не говорю ,что похоже.И не говорю про первую ,,песню,,.
Go to the top of the page
  Insert nick Quick quote
+Quote Post
post Apr 11 2021, 08:51:39
Post #8

hearer & reader
**************
Group: Металариец
Posts: 9,619
Releases: 170
From: Moscow
On Forums: 13 years 7 months
Thanks: 10631 time(s)
Russian Federation


Register


Thanks:
(1) Olethros,
Go to the top of the page
  Insert nick Quick quote
+Quote Post

Reply to this topicStart new topic
2 User(s) are reading this topic (2 Guests and 0 Anonymous Users)
0 Members:

 



- Lo-Fi Version Support form
Copyrights and abuse reports form
Time is now: 19th April 2021 - 17:05:44