Welcome Guest ( Log In | Register )

> Releases Upload / Добавление релизов

Добавить релиз тут / Click here to add release
Рекомендованные обменники / Recommended file shares

> Sweet Oblivion - Relentless (2021), Melodic Heavy Metal
post Apr 8 2021, 12:01:31
Post #1

Правь статус, ####!111
**************
Group: Металариец
Posts: 25,777
Releases: 18452
From: Г.Харьков
On Forums: 8 years 11 months
Thanks: 364448 time(s)
Unknown


(IMG:https://metalarea.org/images/audiocovers/2021_Apr/acov_tid349419_thumb.jpg)

*Artist: Sweet Oblivion
*Album: Relentless
*Year: 2021
*Genre: Melodic Heavy Metal
*Country: International (IMG:https://metalarea.org/forum/style_images/flags/International.png)
*Format: mp3@CBR320kbps
*Size: 100MB

Tracklist:
01. Once Again One Sin
02. Strong Pressure
03. Let It Be
04. Another Change
05. Wake Up Call
06. Remember Me
07. Anybody Out There
08. Aria
09. I'll Be The One
10. Fly Angel Fly
******************************
Total playing time: 42:45



Extended info
Italy / USA
Geoff Tate - Vocals
Aldo Lonobile - Guitars
Luigi Andreone - Bass
Antonio Agate - Keyboards
Michele Sanna - Drums


Technical info
(IMG:https://metalarea.org/images/spectrogram/2021_Apr/f0963d10fafc4c1bd5c525c5ff4cf50a.png)
Input File: 07 - Anybody out There (feat. Geoff Tate).mp3
Channels : 2
Sample Rate : 44100
Precision : 16-bit
Duration : 00:04:12.00 = 11113200 samples = 18900 CDDA sectors
File Size : 10.4M
Bit Rate : 331k
Sample Encoding: MPEG audio (layer I, II or III)
Comments :
Title=Anybody out There (feat. Geoff Tate)
Artist=SWEET OBLIVION/Geoff Tate
Album=Relentless
Tracknumber=7
Year=2021-09-04
Discnumber=1



Register


Go to the top of the page
  Insert nick Quick quote
+Quote Post
 
Start new topic
Replies (1 - 1)
post Apr 15 2021, 14:59:44
Post #2

Ъ
**************
Group: Металариец
Posts: 10,562
Releases: 9
On Forums: 12 years 3 months
Thanks: 2161 time(s)
Sweden


Третьесорт, Another Change и Remember Me еще туда сюда, а остальное совсем тухляк.
Go to the top of the page
  Insert nick Quick quote
+Quote Post

Reply to this topicStart new topic
1 User(s) are reading this topic (1 Guests and 0 Anonymous Users)
0 Members:

 



- Lo-Fi Version Support form
Copyrights and abuse reports form
Time is now: 18th April 2021 - 13:20:22