Welcome Guest ( Log In | Register )

> Releases Upload / Добавление релизов

Добавить релиз тут / Click here to add release
Рекомендованные обменники / Recommended file shares

> Screamachine - Screamachine (2021), Heavy Metal
post Apr 8 2021, 12:17:15
Post #1

Правь статус, ####!111
**************
Group: Металариец
Posts: 25,778
Releases: 18452
From: Г.Харьков
On Forums: 8 years 11 months
Thanks: 364452 time(s)
Unknown


(IMG:https://metalarea.org/images/audiocovers/2021_Apr/acov_tid349420_thumb.jpg)

*Artist: Screamachine
*Album: Screamachine
*Year: 2021
*Genre: Heavy Metal
*Country: Italy (IMG:https://metalarea.org/forum/style_images/flags/Italy.png)
*Format: mp3@CBR320kbps
*Size: 107MB

Tracklist:
01. Demondome
02. The Metal Monster
03. The Human God
04. Darksteel
05. Mistress Of Disaster
06. 52Hz
07. Wisdom Of The Ages
08. Silver Fever
09. Dancing With Shadows
10. Scream Machine
******************************
Total playing time: 45:26



Extended info
Valerio “The Brave” Caricchio - Lead Vocals
Francesco Bucci - Bass
Alex Mele - Guitars
Paolo Campitelli - Guitars
Alfonso “Fo” Corace - Drums


Technical info
(IMG:https://metalarea.org/images/spectrogram/2021_Apr/c7ca072c7aa8d38a3822d8f8cb9fad32.png)
Input File: 08 - Silver Fever.mp3
Channels : 2
Sample Rate : 44100
Precision : 16-bit
Duration : 00:04:42.00 = 12436200 samples = 21150 CDDA sectors
File Size : 11.5M
Bit Rate : 327k
Sample Encoding: MPEG audio (layer I, II or III)
Comments :
Title=Silver Fever
Artist=ScreaMachine
Album=ScreaMachine
Tracknumber=8
Year=2021-09-04
Discnumber=1



Register


Go to the top of the page
  Insert nick Quick quote
+Quote Post
 
Start new topic
Replies (1 - 2)
post Apr 8 2021, 14:09:17
Post #2

Правь статус, ####!111
**************
Group: Металариец
Posts: 4,263
Releases: 161
From: MoscoW
On Forums: 14 years 4 months
Thanks: 4317 time(s)
Russian Federation


SCREAMACHINE:


Thanks:
Go to the top of the page
  Insert nick Quick quote
+Quote Post
post Apr 11 2021, 08:36:29
Post #3

hearer & reader
**************
Group: Металариец
Posts: 9,619
Releases: 170
From: Moscow
On Forums: 13 years 7 months
Thanks: 10629 time(s)
Russian Federation


https://music.yandex.ru/album/13198586
Go to the top of the page
  Insert nick Quick quote
+Quote Post

Reply to this topicStart new topic
1 User(s) are reading this topic (1 Guests and 0 Anonymous Users)
0 Members:

 



- Lo-Fi Version Support form
Copyrights and abuse reports form
Time is now: 18th April 2021 - 13:42:22