Welcome Guest ( Log In | Register )

 
Reply to this topicStart new topic
> Skumlord - Fetid Fucking Blackness [demo] (2007), Raw Black Metal (D4)
post May 17 2021, 17:15:42
Post #1

Правь статус, ####!111
**************
Group: Металариец
Posts: 5,513
Releases: 602
From: MoscoW
On Forums: 15 years 11 months
Thanks: 9421 time(s)
Russian Federation


(IMG:https://metalarea.org/images/audiocovers/2021_May/acov_tid350955_thumb.jpg)

*Artist: Skumlord
*Album: Fetid Fucking Blackness [demo]
*Year: 2007
*Genre: Raw Black Metal
*Country: United States (IMG:https://metalarea.org/forum/style_images/flags/United%20States.png)
*Format: mp3@CBR320kbps
*Size: 18MB

Tracklist:
01. Post-Coital Remnants 02:06
02. Putrefactive Efforts 01:46
03. Foetid Fucking Blackness 03:50
******************************
Total playing time: 7:42

Extended info


Technical info
(IMG:https://metalarea.org/images/spectrogram/2021_May/c50454a4826f1e49ac2974c15ae0bff7.png)
Input File: 01. Post-Coital Remnants.mp3
Channels : 2
Sample Rate : 44100
Precision : 16-bit
Duration : 00:02:06.07 = 5559819 samples = 9455.47 CDDA sectors
File Size : 5.14M
Bit Rate : 326k
Sample Encoding: MPEG audio (layer I, II or III)
Comments :
Title=Post-Coital Remnants
Artist=Skumlord
Album=Fetid Fucking Blackness (demo)
Tracknumber=1
Year=2007



Register


Go to the top of the page
  Insert nick Quick quote
+Quote Post

Reply to this topicStart new topic
1 User(s) are reading this topic (1 Guests and 0 Anonymous Users)
0 Members:

 



- Lo-Fi Version Support form
Copyrights and abuse reports form
Time is now: 29th November 2022 - 13:01:42