Welcome Guest ( Log In | Register )

> Pilot Wolf - Killer Machine (2020), Heavy Metal
post Jun 11 2021, 00:17:31
Post #1

Маньяк
**********
Group: Металариец
Posts: 1,094
Releases: 934
On Forums: 1 year 3 weeks
Thanks: 24525 time(s)
United States


(IMG:http://metalarea.org/images/audiocovers/2021_Jun/acov_tid351936_thumb.jpg)

*Artist: Pilot Wolf
*Album: Killer Machine
*Year: 2020
*Genre: Heavy Metal
*Country: Brazil (IMG:http://metalarea.org/forum/style_images/flags/Brazil.png)
*Format: mp3@CBR320kbps
*Size: 118MB

Tracklist:
01. Marching
02. Strike Back
03. Killer Machine
04. The Red Baron (Alternative Version)
05. Ignition
06. Palace Of Death
07. Illusions
08. Masters Of Disease
09. Ghost Warriors
10. North Wind
11. The Red Baron
******************************
Total playing time: 46:47



Technical info
(IMG:http://metalarea.org/images/spectrogram/2021_Jun/c3000f6e80ebfa9b3e6587d65b37de97.png)
Input File: 02. Strike Back.mp3
Channels : 2
Sample Rate : 44100
Precision : 16-bit
Duration : 00:04:34.83 = 12119827 samples = 20612 CDDA sectors
File Size : 11.1M
Bit Rate : 322k
Sample Encoding: MPEG audio (layer I, II or III)
Comments :
Title=Strike Back
Artist=Pilot Wolf
Album=Killer Machine
Tracknumber=02/11
Year=2020-10-18
Genre=Metal
Discnumber=1



Register


Go to the top of the page
  Insert nick Quick quote
+Quote Post
 
Start new topic
Replies (1 - 7)
post Jun 11 2021, 16:10:26
Post #2

Common dweller of hell
**************
Group: Металариец
Posts: 4,267
Releases: 12
From: Dnipro
On Forums: 13 years 10 months
Thanks: 1680 time(s)
Ukraine


Go to the top of the page
  Insert nick Quick quote
+Quote Post
post Jun 11 2021, 16:53:30
Post #3

Шесть Литров
******
Group: Металариец
Posts: 690
Releases: 0
On Forums: 12 years 10 months
Thanks: 175 time(s)
Ukraine


спасибо з а хороший подгон!!!!
Go to the top of the page
  Insert nick Quick quote
+Quote Post
post Jun 11 2021, 16:56:29
Post #4

Правь статус, ####!111
**************
Group: Металариец
Posts: 50,593
Releases: 931
On Forums: 12 years 11 months
Thanks: 47329 time(s)
Russian Federation


Не знаю нащёт пилота волка, но волк - комбайнёр - наше всё!!!

(IMG:https://b.radikal.ru/b35/2106/fc/b04e82c9cfdf.jpg)


Go to the top of the page
  Insert nick Quick quote
+Quote Post
post Jun 12 2021, 15:31:07
Post #5

Четыре Литра
****
Group: Металариец
Posts: 314
Releases: 0
From: Калуга
On Forums: 4 years 3 months
Thanks: 103 time(s)
Russian Federation


[quote name='vosmidesijatye' date='Jun 11 2021, 16:56:29' post='2590823']
Не знаю нащёт пилота волка, но волк - комбайнёр - наше всё!!!
с волком пилотом то же порядок.
(IMG:https://i0.wp.com/image.tmdb.org/t/p/original/AhaK6vaq6SzkJlzHoifN3y3gS3B.jpg)
Go to the top of the page
  Insert nick Quick quote
+Quote Post
post Jun 12 2021, 15:32:29
Post #6

Правь статус, ####!111
**************
Group: Металариец
Posts: 50,593
Releases: 931
On Forums: 12 years 11 months
Thanks: 47329 time(s)
Russian Federation


ЦИТАТА(rominow @ Jun 12 2021, 18:31:07) *
с волком пилотом то же порядок.
https://i0.wp.com/image.tmdb.org/t/p/origin...oifN3y3gS3B.jpg


Он тут в роли пассажира (IMG:style_emoticons/default/bye.gif)
Go to the top of the page
  Insert nick Quick quote
+Quote Post
post Jun 12 2021, 15:47:43
Post #7

Четыре Литра
****
Group: Металариец
Posts: 314
Releases: 0
From: Калуга
On Forums: 4 years 3 months
Thanks: 103 time(s)
Russian Federation


ЦИТАТА(vosmidesijatye @ Jun 12 2021, 15:32:29) *
Он тут в роли пассажира (IMG:style_emoticons/default/bye.gif)

(IMG:style_emoticons/default/23.gif) второй пилот


Go to the top of the page
  Insert nick Quick quote
+Quote Post
post Jun 25 2021, 17:39:36
Post #8

Перевозчик
**************
Group: Металариец
Posts: 3,410
Releases: 0
On Forums: 13 years 10 months
Thanks: 759 time(s)
Russian Federation


ЦИТАТА(vosmidesijatye @ Jun 12 2021, 17:32:29) *
Он тут в роли пассажира (IMG:style_emoticons/default/bye.gif)

В некоторых двухместных самолётах позади располагается как раз-то пилот. (IMG:style_emoticons/default/bye.gif)


Thanks:
Go to the top of the page
  Insert nick Quick quote
+Quote Post

Reply to this topicStart new topic
2 User(s) are reading this topic (2 Guests and 0 Anonymous Users)
0 Members:

 



- Lo-Fi Version Support form
Copyrights and abuse reports form
Time is now: 18th May 2022 - 13:18:17