Welcome Guest ( Log In | Register )

 
Reply to this topicStart new topic
> Sorting Infinity - Ideas Of Power (2021), Progressive Heavy/Thrash Metal
post Jun 28 2021, 05:42:10
Post #1

Правь статус, ####!111
**************
Group: Металариец
Posts: 27,349
Releases: 19845
From: Г.Харьков
On Forums: 9 years 4 months
Thanks: 399176 time(s)
Unknown


(IMG:http://metalarea.org/images/audiocovers/2021_Jun/acov_tid352718_thumb.jpg)

*Artist: Sorting Infinity
*Album: Ideas Of Power
*Year: 2021
*Genre: Progressive Heavy/Thrash Metal
*Country: Canada (IMG:http://metalarea.org/forum/style_images/flags/Canada.png)
*Format: mp3@CBR320kbps
*Size: 82MB

Tracklist:
1. Broken
2. Walls of Sanity
3. Artificial Insanity
4. Insurrection
5. The Last Wish
6. Eternal Lies
7. Chaos of Mind
8. 20 Floors to Go
******************************
Total playing time: 36:04


(IMG:http://metalarea.org/images/youtube.png)

Technical info
(IMG:http://metalarea.org/images/spectrogram/2021_Jun/3809ba7d7532cf27650cc7e409131eb5.png)
Input File: 08 - 20 Floors to Go.mp3
Channels : 2
Sample Rate : 44100
Precision : 16-bit
Duration : 00:05:38.10 = 14910122 samples = 25357.4 CDDA sectors
File Size : 13.5M
Bit Rate : 320k
Sample Encoding: MPEG audio (layer I, II or III)
Comments :
Title=20 Floors to Go
Artist=Sorting Infinity
Album=Ideas of Power
Tracknumber=8
Year=2021



Register


Go to the top of the page
  Insert nick Quick quote
+Quote Post

Reply to this topicStart new topic
1 User(s) are reading this topic (1 Guests and 0 Anonymous Users)
0 Members:

 



- Lo-Fi Version Support form
Copyrights and abuse reports form
Time is now: 17th September 2021 - 14:53:02