Welcome Guest ( Log In | Register )

> Over Reach - Toxic World (2021), Thrash Metal
post Jul 9 2021, 10:46:26
Post #1

Правь статус, ####!111
**************
Group: Металариец
Posts: 28,174
Releases: 20563
From: Г.Харьков
On Forums: 9 years 6 months
Thanks: 418750 time(s)
Unknown


(IMG:https://metalarea.org/images/audiocovers/2021_Jul/acov_tid353202_thumb.jpg)

*Artist: Over Reach
*Album: Toxic World
*Year: 2021
*Genre: Thrash Metal
*Country: Mexico (IMG:https://metalarea.org/forum/style_images/flags/Mexico.png)
*Format: mp3@CBR320kbps
*Size: 114MB

Tracklist:
1. Toxic World 01:33
2. Over Reach 04:13
3. Be Fast 04:08
4. Extintion 05:34
5. Ciber War 04:37
6. Robozombie Apocalypse 05:30
7. Winter Fire 04:31
8. Moshpit Or Die 03:26
9. The Beast 05:51
10. Yellow Poison 03:19
11. Raven 06:16
******************************
Total playing time: 48:58



Extended info
Angel Contreras Bass (2010-present), Vocals (2018-present)
Carlos Rodríguez Drums (2010-present)
Fernando Castillo Guitars (2017-present)


Technical info
(IMG:https://metalarea.org/images/spectrogram/2021_Jul/8321cec353d3991f6e70358871363234.png)
Input File: 06 - Robozombie Apocalypse.mp3
Channels : 2
Sample Rate : 44100
Precision : 16-bit
Duration : 00:05:30.00 = 14553000 samples = 24750 CDDA sectors
File Size : 13.4M
Bit Rate : 326k
Sample Encoding: MPEG audio (layer I, II or III)
Comments :
Title=Robozombie Apocalypse
Artist=Over Reach
Album=Toxic World
Tracknumber=6
Year=2021-03-26
Genre=Metal
Discnumber=1



Register


Go to the top of the page
  Insert nick Quick quote
+Quote Post
 
Start new topic
Replies (1 - 1)
post Jul 25 2021, 19:17:42
Post #2

Маньяк
**********
Group: Металариец
Posts: 1,413
Releases: 5
From: Нью-Васюки
On Forums: 15 years 6 months
Thanks: 422 time(s)
Russian Federation



Нормально играют,бодренько


Thanks:
Go to the top of the page
  Insert nick Quick quote
+Quote Post

Reply to this topicStart new topic
2 User(s) are reading this topic (2 Guests and 0 Anonymous Users)
0 Members:

 



- Lo-Fi Version Support form
Copyrights and abuse reports form
Time is now: 4th December 2021 - 11:36:34