Welcome Guest ( Log In | Register )

 
Reply to this topicStart new topic
> Lifeless Gaze - Life Equals Zero [single] (2020), Black/Funeral Doom Metal
post Jul 25 2021, 17:32:01
Post #1

KPN 666
**************
Group: Металариец
Posts: 2,794
Releases: 1378
From: Тегеран
On Forums: 13 years 1 month
Thanks: 19900 time(s)
Iran


(IMG:http://metalarea.org/images/audiocovers/2021_Jul/acov_tid353758_thumb.jpg)

*Artist: Lifeless Gaze
*Album: Life Equals Zero [single]
*Year: 2020
*Genre: Black/Funeral Doom Metal
*Country: Poland (IMG:http://metalarea.org/forum/style_images/flags/Poland.png)
*Format: mp3@CBR320kbps
*Size: 30MB

Tracklist:
01. Life Equals Zero (Live) 13:13
******************************
Total playing time: 13:13



Technical info
(IMG:http://metalarea.org/images/spectrogram/2021_Jul/e1568ff2e178e35304be23a72a823dac.png)
Input File: 01. Life Equals Zero (Live).mp3
Channels : 2
Sample Rate : 44100
Precision : 16-bit
Duration : 00:00:00.79 = 34927 samples = 59.3997 CDDA sectors
File Size : 31.8M
Bit Rate : 321M
Sample Encoding: MPEG audio (layer I, II or III)
Comments :
Title=Life Equals Zero (Live)
Artist=Lifeless Gaze
Album=Life Equals Zero (Live)
Tracknumber=1
Year=2020-02-12
Genre=Alternative & Rock
Discnumber=1



Register


Go to the top of the page
  Insert nick Quick quote
+Quote Post

Reply to this topicStart new topic
1 User(s) are reading this topic (1 Guests and 0 Anonymous Users)
0 Members:

 



- Lo-Fi Version Support form
Copyrights and abuse reports form
Time is now: 17th August 2022 - 07:43:39