Welcome Guest ( Log In | Register )

 
Reply to this topicStart new topic
> Terribilis - Terribilis/Грянет Суть [compilation] (2017), Black Metal
post Jul 25 2021, 18:51:01
Post #1

Правь статус, 616
**************
Group: Металариец
Posts: 7,438
Releases: 5826
From: 55°35’N 38°08’E
On Forums: 13 years 10 months
Thanks: 108047 time(s)
Russian Federation


(IMG:https://metalarea.org/images/audiocovers/2021_Jul/acov_tid353760_thumb.jpg)

*Artist: Terribilis
*Album: Terribilis/Грянет Суть [compilation]
*Year: 2017
*Genre: Black Metal
*Country: Russian Federation (IMG:https://metalarea.org/forum/style_images/flags/Russian%20Federation.png)
*Format: mp3@CBR320kbps
*Size: 111MB

Tracklist:
1. Мерзость богова... 05:39
2. На заклание к чёрту! 04:44
3. Дары 03:05
4. Глубинный червь 04:48
5. Стань ядом 06:24
6. Монолог над могилой 05:26
7. Грянет суть 05:16
8. Мой зеркальный гость 04:06
9. Моё царство, мой трон 05:34
10. Чтобы потухли глаза... 02:54
******************************
Total playing time: 47:56



Technical info
(IMG:https://metalarea.org/images/spectrogram/2021_Jul/21fb7865a3f9a5a075f6fb32d23a02c2.png)
Input File: 01 Мерзость богова....mp3
Channels : 2
Sample Rate : 44100
Precision : 16-bit
Duration : 00:05:37.99 = 14905535 samples = 25349.5 CDDA sectors
File Size : 13.8M
Bit Rate : 326k
Sample Encoding: MPEG audio (layer I, II or III)
Comments :
Title=Мерзость богова...
Artist=Terribilis
Album=Terribilis / Грянет Суть
Tracknumber=1
Year=2017
Genre=Black Metal



Register


Go to the top of the page
  Insert nick Quick quote
+Quote Post

Reply to this topicStart new topic
1 User(s) are reading this topic (1 Guests and 0 Anonymous Users)
0 Members:

 



- Lo-Fi Version Support form
Copyrights and abuse reports form
Time is now: 24th May 2022 - 19:52:38