Welcome Guest ( Log In | Register )

> Déhà - Fulgur Et Morte (2021), Atmospheric Black Metal (D15)
post Aug 30 2021, 23:56:39
Post #1

Правь статус, 616
**************
Group: Металариец
Posts: 7,221
Releases: 5651
From: 55°35’N 38°08’E
On Forums: 13 years 4 months
Thanks: 104117 time(s)
Unknown


(IMG:https://metalarea.org/images/audiocovers/2021_Aug/acov_tid354939_thumb.jpg)

*Artist: Déhà
*Album: Fulgur Et Morte
*Year: 2021
*Genre: Atmospheric Black Metal
*Country: Belgium (IMG:https://metalarea.org/forum/style_images/flags/Belgium.png)
*Format: mp3@CBR320kbps
*Size: 127MB

Tracklist:
1.Introspection 26:16
2.Lorgnant vers le ciel, le poing bien haut 29:08
******************************
Total playing time: 55:24



Technical info
(IMG:https://metalarea.org/images/spectrogram/2021_Aug/6b84b517fda548bcde840a4aa545208c.png)
Input File: 01 Introspection.mp3
Channels : 2
Sample Rate : 44100
Precision : 16-bit
Duration : 00:26:16.16 = 69508744 samples = 118212 CDDA sectors
File Size : 63.2M
Bit Rate : 321k
Sample Encoding: MPEG audio (layer I, II or III)
Comments :
Title=Introspection
Artist=Déhà
Album=Fulgur et Morte
Tracknumber=1
Year=2021
Genre=Black Metal



Register


Go to the top of the page
  Insert nick Quick quote
+Quote Post
 
Start new topic
Replies (1 - 2)
post Aug 31 2021, 08:51:32
Post #2

Четыре Литра
****
Group: Металариец
Posts: 324
Releases: 0
From: минск сити
On Forums: 12 years 5 months
Thanks: 168 time(s)
Belarus


6й альбом за этот год... Это какой-то челендж с Wintaar?
По музыке... такое себе, 2-3 аккордное с ревером, мелодий не обнаружено, можно было бы и до 10ти альбомов наклепать, зачем останавливаться.


Thanks:
Go to the top of the page
  Insert nick Quick quote
+Quote Post
post Aug 31 2021, 11:12:45
Post #3

0%Tolerance
**********
Group: Металариец
Posts: 1,493
Releases: 0
On Forums: 9 years 2 months
Thanks: 282 time(s)
Unknown


Сдулся на конвейере. Банальный говнарь.


Thanks:
(1) Storky,
Go to the top of the page
  Insert nick Quick quote
+Quote Post

Reply to this topicStart new topic
2 User(s) are reading this topic (2 Guests and 0 Anonymous Users)
0 Members:

 



- Lo-Fi Version Support form
Copyrights and abuse reports form
Time is now: 4th December 2021 - 12:07:25