Welcome Guest ( Log In | Register )

> Parasite - Altarèe 2 [ep] (2021), Industrial Black Metal (D16)
post Sep 6 2021, 08:41:35
Post #1

Group: Дух
Posts: 9
Releases: 2
On Forums: 5 months 2 weeks
Thanks: 38 time(s)
Italy


(IMG:http://metalarea.org/images/audiocovers/2021_Sep/acov_tid355187_thumb.jpg)

*Artist: Parasite
*Album: Altarèe 2 [ep]
*Year: 2021
*Genre: Industrial Black Metal
*Country: Italy (IMG:http://metalarea.org/forum/style_images/flags/Italy.png)
*Format: mp3@CBR325kbps
*Size: 60MB

Tracklist:
1. 1911 Black Terror Metal
2. Hell's Canvases
3. Steelworkers of Lucifer
4. Satanic Fever
5. The Sin of Christine
******************************
Total playing time: 23:40



Extended info
industrial black metal inspired by the masters in genre (Mysticum, Beherit, Black Funeral ...)


Technical info
(IMG:http://metalarea.org/images/spectrogram/2021_Sep/eeee3da4848e5f25b0426479ec6dc49f.png)
Input File: Parasite - altar+¿e 2 - 01 1911 black terror metal.mp3
Channels : 2
Sample Rate : 44100
Precision : 16-bit
Duration : 00:05:12.86 = 13797082 samples = 23464.4 CDDA sectors
File Size : 12.7M
Bit Rate : 324k
Sample Encoding: MPEG audio (layer I, II or III)
Comments :
Title=1911 black terror metal
Artist=Parasite
Album=altarèe 2
Tracknumber=1
Year=2021



Register


Go to the top of the page
  Insert nick Quick quote
+Quote Post
 
Start new topic
Replies (1 - 2)
post Sep 7 2021, 13:53:31
Post #2

Forever Underground
**************
Group: Металариец
Posts: 9,162
Releases: 0
On Forums: 6 years 7 months
Thanks: 12895 time(s)
Unknown


Lossless
Register


Thanks:
(4) caro, gwar, Wail, wreak,
Go to the top of the page
  Insert nick Quick quote
+Quote Post
post Sep 12 2021, 17:39:33
Post #3

0%Tolerance
**********
Group: Металариец
Posts: 1,493
Releases: 0
On Forums: 9 years 2 months
Thanks: 282 time(s)
Unknown


Норм.


Thanks:
(1) Storky,
Go to the top of the page
  Insert nick Quick quote
+Quote Post

Reply to this topicStart new topic
2 User(s) are reading this topic (2 Guests and 0 Anonymous Users)
0 Members:

 



- Lo-Fi Version Support form
Copyrights and abuse reports form
Time is now: 4th December 2021 - 11:42:25