Welcome Guest ( Log In | Register )

> Human Doll - Funeral Landscapes (2021), Progressive Black Metal
post Sep 21 2021, 18:48:53
Post #1

funeral doom fan
Group Icon
Group: S-moderation team
Posts: 5,356
Releases: 3013
From: Ростов-на-Дону
On Forums: 15 years 11 months
Thanks: 57111 time(s)
Russian Federation


(IMG:http://metalarea.org/images/audiocovers/2021_Sep/acov_tid355761_thumb.jpg)

*Artist: Human Doll
*Album: Funeral Landscapes
*Year: 2021
*Genre: Progressive Black Metal
*Country: Spain (IMG:http://metalarea.org/forum/style_images/flags/Spain.png)
*Format: mp3@CBR320kbps
*Size: 109MB

Tracklist:
1. The Cursed Tribe 06:32
2. Blood Moon (Wozzeck) 04:28
3. When the Day Returns 07:34
4. Apsû 01:55
5. Veiled Stroke 05:20
6. Funeral Landscapes 16:32
7. Decaying Clouds 05:04
******************************
Total playing time: 47:25



Technical info
(IMG:http://metalarea.org/images/spectrogram/2021_Sep/a0982e38af7618e30e0f839bd2dd88a5.png)
Input File: 02 - Blood Moon (Wozzeck).mp3
Channels : 2
Sample Rate : 44100
Precision : 16-bit
Duration : 00:04:27.88 = 11813376 samples = 20090.8 CDDA sectors
File Size : 10.8M
Bit Rate : 324k
Sample Encoding: MPEG audio (layer I, II or III)
Comments :
Title=Blood Moon (Wozzeck)
Artist=Human Doll
Album=Funeral Landscapes
Tracknumber=02
Year=2021
Genre=Metal



Register


Go to the top of the page
  Insert nick Quick quote
+Quote Post
 
Start new topic
Replies (1 - 6)
post Sep 22 2021, 13:38:58
Post #2

0%Tolerance
**********
Group: Металариец
Posts: 1,493
Releases: 0
On Forums: 9 years 2 months
Thanks: 282 time(s)
Unknown


Отличный около авангардный блэк митал. Не на один раз, есть что расскуривать.


Thanks:
(1) Mencae77,
Go to the top of the page
  Insert nick Quick quote
+Quote Post
post Sep 23 2021, 14:49:27
Post #3

Три Литра
***
Group: Завсегдатай
Posts: 276
Releases: 1
From: Brasil - Sao Paulo
On Forums: 1 year 7 months
Thanks: 114 time(s)
Brazil


Very nice indeed!
Go to the top of the page
  Insert nick Quick quote
+Quote Post
post Sep 25 2021, 08:48:25
Post #4

Пусто
**************
Group: Металариец
Posts: 2,113
Releases: 27
From: Санкт-Петербург
On Forums: 14 years 11 months
Thanks: 1740 time(s)
Russian Federation


отвратно звучащий фрути-лупс бм


Thanks:
Go to the top of the page
  Insert nick Quick quote
+Quote Post
post Sep 30 2021, 15:57:14
Post #5

0%Tolerance
**********
Group: Металариец
Posts: 1,493
Releases: 0
On Forums: 9 years 2 months
Thanks: 282 time(s)
Unknown


ЦИТАТА(Nemez @ Sep 25 2021, 08:48:25) *
отвратно звучащий фрути-лупс бм

Ценитель чистого звука не от фрути-лупс, блть.
Подвал, да. Далеко не самый конченный.
Go to the top of the page
  Insert nick Quick quote
+Quote Post
post Oct 4 2021, 16:08:32
Post #6

Пусто
**************
Group: Металариец
Posts: 2,113
Releases: 27
From: Санкт-Петербург
On Forums: 14 years 11 months
Thanks: 1740 time(s)
Russian Federation


ЦИТАТА(Vitald @ Sep 30 2021, 17:57:14) *
Ценитель чистого звука не от фрути-лупс, блть.
Подвал, да. Далеко не самый конченный.


я не знаю где он запрограммировал бас и ударные, но точно не в подвале
Go to the top of the page
  Insert nick Quick quote
+Quote Post
post Oct 4 2021, 16:29:09
Post #7

0%Tolerance
**********
Group: Металариец
Posts: 1,493
Releases: 0
On Forums: 9 years 2 months
Thanks: 282 time(s)
Unknown


ЦИТАТА(Nemez @ Oct 4 2021, 16:08:32) *
я не знаю где он запрограммировал бас и ударные, но точно не в подвале


Нынче подвалы продвинутые. На чердак может полез?



Thanks:
(1) Dionis,
Go to the top of the page
  Insert nick Quick quote
+Quote Post

Reply to this topicStart new topic
2 User(s) are reading this topic (2 Guests and 0 Anonymous Users)
0 Members:

 



- Lo-Fi Version Support form
Copyrights and abuse reports form
Time is now: 4th December 2021 - 11:18:26