Welcome Guest ( Log In | Register )

> Vonnegut - Grand Betrayal (2021), Technical/Modern Death Metal
post Sep 28 2021, 18:59:10
Post #1

Правь статус, ####!111
**************
Group: Металариец
Posts: 28,174
Releases: 20563
From: Г.Харьков
On Forums: 9 years 6 months
Thanks: 418746 time(s)
Unknown


(IMG:https://metalarea.org/images/audiocovers/2021_Sep/acov_tid356058_thumb.jpg)

*Artist: Vonnegut
*Album: Grand Betrayal
*Year: 2021
*Genre: Technical/Modern Death Metal
*Country: Russian Federation (IMG:https://metalarea.org/forum/style_images/flags/Russian%20Federation.png)
*Format: mp3@CBR320kbps
*Size: 108MB

Tracklist:
1. Frisium 05:04
2. Exodus of the Dead 05:20
3. Vantablack 06:46
4. The Thirst 05:16
5. War of Hypocrites 04:27
6. Worshipped and Cursed 05:17
7. The Lurking Fear 04:51
8. Grand Betrayal 07:11
******************************
Total playing time: 44:12




Extended info
Pavel Kryukov Guitars
Alex Bartholomew Vocals, Lyrics
Konstantin Ogarkov Guitars, Bass, Drum programming


Technical info
(IMG:https://metalarea.org/images/spectrogram/2021_Sep/952da132d04f09f3c14cbe1cb78d0196.png)
Input File: 06 - Worshipped and Cursed.mp3
Channels : 2
Sample Rate : 44100
Precision : 16-bit
Duration : 00:05:17.74 = 14012510 samples = 23830.8 CDDA sectors
File Size : 13.6M
Bit Rate : 342k
Sample Encoding: MPEG audio (layer I, II or III)
Comments :
Title=Worshipped and Cursed
Artist=Vonnegut
Album=Grand Betrayal
Tracknumber=6/8
Year=2021
Discnumber=1/1



Register


Go to the top of the page
  Insert nick Quick quote
+Quote Post
 
Start new topic
Replies (1 - 1)
post Sep 30 2021, 14:07:06
Post #2

0%Tolerance
**********
Group: Металариец
Posts: 1,493
Releases: 0
On Forums: 9 years 2 months
Thanks: 282 time(s)
Unknown


Суровый челябинский митал - он такой суровый. (IMG:style_emoticons/default/1488.gif)
А если серьёзно, то довольно классный, не примитивный дэтх ребятки валят. Оставлю - переслушаю ещё.


Thanks:
(1) Un4given,
Go to the top of the page
  Insert nick Quick quote
+Quote Post

Reply to this topicStart new topic
2 User(s) are reading this topic (2 Guests and 0 Anonymous Users)
0 Members:

 



- Lo-Fi Version Support form
Copyrights and abuse reports form
Time is now: 4th December 2021 - 11:26:09