Welcome Guest ( Log In | Register )

> Apognosis - Phase 6 (2016), Black Metal (D5)
post Sep 29 2021, 00:46:53
Post #1

Правь статус, 616
**************
Group: Металариец
Posts: 7,221
Releases: 5651
From: 55°35’N 38°08’E
On Forums: 13 years 4 months
Thanks: 104117 time(s)
Unknown


(IMG:https://metalarea.org/images/audiocovers/2021_Sep/acov_tid356062_thumb.jpg)

*Artist: Apognosis
*Album: Phase 6
*Year: 2016
*Genre: Black Metal
*Country: Greece (IMG:https://metalarea.org/forum/style_images/flags/Greece.png)
*Format: mp3@CBR320kbps
*Size: 89MB

Tracklist:
1.Divine Seduction 05:48
2.The Failure of Man 07:22
3.Ixion 05:55
4.Apophenia 05:08
5.The Secret of the Universe 06:29
6.Ill 08:22
******************************
Total playing time: 39:04



(IMG:https://metalarea.org/images/youtube.png)

Extended info
CD, Ars Marginalia
FLAC-Rip


Technical info
(IMG:https://metalarea.org/images/spectrogram/2021_Sep/d95cffd1f12f902167d59673f32bb6ad.png)
Input File: 01 Divine Seduction.mp3
Channels : 2
Sample Rate : 44100
Precision : 16-bit
Duration : 00:05:50.46 = 15455066 samples = 26284.1 CDDA sectors
File Size : 14.1M
Bit Rate : 321k
Sample Encoding: MPEG audio (layer I, II or III)
Comments :
Title=Divine Seduction
Artist=Apognosis
Album=Phase 6
Tracknumber=1/6
Year=2016
Genre=Black Metal
Discnumber=1/1



Register


Go to the top of the page
  Insert nick Quick quote
+Quote Post
 
Start new topic
Replies (1 - 8)
post Sep 29 2021, 20:41:28
Post #2

Три Литра
***
Group: Завсегдатай
Posts: 213
Releases: 5
On Forums: 3 years 9 months
Thanks: 716 time(s)
Unknown


...All we are is FLACs in the wind, dude...

Register


Go to the top of the page
  Insert nick Quick quote
+Quote Post
post Sep 30 2021, 00:54:42
Post #3

Group: Подсевший
Posts: 43
Releases: 0
On Forums: 12 years 3 months
Thanks: 20 time(s)
Unknown


ЦИТАТА(witchfinder @ Sep 29 2021, 22:41:28) *
...All we are is FLACs in the wind, dude...


FLAC'‎s has completely enslaved my soul and devours me from the inside...


Thanks:
(1) Mencae77,
Go to the top of the page
  Insert nick Quick quote
+Quote Post
post Sep 30 2021, 09:50:58
Post #4

Два Литра
**
Group: Завсегдатай
Posts: 167
Releases: 0
From: Zürich
On Forums: 5 months 2 weeks
Thanks: 69 time(s)
Switzerland


Начало никакое, под конец становится по-лучше - последние два трека заинтересовали.
Go to the top of the page
  Insert nick Quick quote
+Quote Post
post Sep 30 2021, 12:54:04
Post #5

Три Литра
***
Group: Завсегдатай
Posts: 276
Releases: 1
From: Brasil - Sao Paulo
On Forums: 1 year 7 months
Thanks: 114 time(s)
Brazil


QUOTE
Начало никакое

See nothing wrong/bad with the beginning...
Go to the top of the page
  Insert nick Quick quote
+Quote Post
post Sep 30 2021, 14:23:38
Post #6

0%Tolerance
**********
Group: Металариец
Posts: 1,493
Releases: 0
On Forums: 9 years 2 months
Thanks: 282 time(s)
Unknown


ЦИТАТА(AnthonyHipHopkins @ Sep 30 2021, 09:50:58) *
Начало никакое, под конец становится по-лучше - последние два трека заинтересовали.

Начало какое.

Альбом хорош на всём своём протяжении. Умеют греки годный блэкх митал мутить. Даже в количестве одного человека в составе.
Надо будет с крайним полноформатом ознакомиться обязательно.


Thanks:
Go to the top of the page
  Insert nick Quick quote
+Quote Post
post Sep 30 2021, 14:48:35
Post #7

Два Литра
**
Group: Завсегдатай
Posts: 167
Releases: 0
From: Zürich
On Forums: 5 months 2 weeks
Thanks: 69 time(s)
Switzerland


QUOTE(Vitald @ Sep 30 2021, 15:23:38) *
Начало какое.

Альбом хорош на всём своём протяжении.

The Failure of Man еще на пару раз пойдет может быть, но 1,3,4 абсолютно мимо. А протяжение этого альбома отнюдь не в плюс - каждый трек можно было бы вдвое укоротить и только лучше стало бы.
Go to the top of the page
  Insert nick Quick quote
+Quote Post
post Sep 30 2021, 15:22:40
Post #8

0%Tolerance
**********
Group: Металариец
Posts: 1,493
Releases: 0
On Forums: 9 years 2 months
Thanks: 282 time(s)
Unknown


ЦИТАТА(AnthonyHipHopkins @ Sep 30 2021, 14:48:35) *
The Failure of Man еще на пару раз пойдет может быть, но 1,3,4 абсолютно мимо. А протяжение этого альбома отнюдь не в плюс - каждый трек можно было бы вдвое укоротить и только лучше стало бы.


На счёт укорачивания согласен. Резина цикличность одного и того же мотива присутствует. В последнем треке это, правда, не бесит нисколько.
Go to the top of the page
  Insert nick Quick quote
+Quote Post
post Oct 30 2021, 08:02:34
Post #9

i listen to black metal
**************
Group: Металариец
Posts: 3,117
Releases: 142
From: Москва
On Forums: 14 years 11 months
Thanks: 2375 time(s)
Russian Federation


для фона очень хорошо!!!!
Go to the top of the page
  Insert nick Quick quote
+Quote Post

Reply to this topicStart new topic
1 User(s) are reading this topic (1 Guests and 0 Anonymous Users)
0 Members:

 



- Lo-Fi Version Support form
Copyrights and abuse reports form
Time is now: 4th December 2021 - 12:20:54