Welcome Guest ( Log In | Register )

> Inferia - Spawned At The Dawn [ep] (1993), Death Metal/Grindcore (D)
post Oct 2 2021, 13:13:15
Post #1

Join my religion, or die
**************
Group: Металариец
Posts: 11,040
Releases: 1721
From: Питера
On Forums: 12 years 3 months
Thanks: 22816 time(s)
Russian Federation


(IMG:https://metalarea.org/images/audiocovers/2021_Oct/acov_tid356226_thumb.jpg)

*Artist: Inferia
*Album: Spawned At The Dawn [ep]
*Year: 1993
*Genre: Death Metal/Grindcore
*Country: Finland (IMG:https://metalarea.org/forum/style_images/flags/Finland.png)
*Format: mp3@CBR320kbps
*Size: 24MB

Tracklist:
01. Under the Skin of the Split Body 02:20
02. The Art of Self-Mutilation 02:02
03. Lunatics Anal Fanatics 01:27
04. Spawned at the Dawn 02:09
05. They Bleed and Bleed 02:23
******************************
Total playing time: 10:21

(IMG:https://metalarea.org/images/youtube.png)

Technical info
(IMG:https://metalarea.org/images/spectrogram/2021_Oct/07609bd91055ac88cb70e0f4bf1be33c.png)
Input File: 02 The Art of Self-Mutilation.mp3
Channels : 2
Sample Rate : 44100
Precision : 16-bit
Duration : 00:02:02.00 = 5380200 samples = 9150 CDDA sectors
File Size : 5.02M
Bit Rate : 329k
Sample Encoding: MPEG audio (layer I, II or III)
Comments :
Title=The Art of Self-Mutilation
Artist=Inferia
Album=1993 Spawned at the Dawn
Tracknumber=02/05
Year=1993
Genre=Death Metal



Register


Go to the top of the page
  Insert nick Quick quote
+Quote Post
 
Start new topic
Replies (1 - 3)
post Oct 3 2021, 10:01:55
Post #2

Forever Underground
**************
Group: Металариец
Posts: 9,351
Releases: 0
On Forums: 6 years 9 months
Thanks: 13250 time(s)
Unknown


Lossless
Register



Thanks:
(2) Storky, wreak,
Go to the top of the page
  Insert nick Quick quote
+Quote Post
post Oct 3 2021, 12:11:25
Post #3

Три Литра
***
Group: Завсегдатай
Posts: 271
Releases: 0
From: Калуга
On Forums: 3 years 11 months
Thanks: 80 time(s)
Russian Federation


Вот это находочка! Очень круто! Похожи на Putrid Offal.


Thanks:
(1) Storky,
Go to the top of the page
  Insert nick Quick quote
+Quote Post
post Nov 2 2021, 16:10:24
Post #4

добрый мизантроп
**************
Group: Металариец
Posts: 2,784
Releases: 1
From: Менск
On Forums: 11 years 2 months
Thanks: 1222 time(s)
Madagascar


Прелесть!
Go to the top of the page
  Insert nick Quick quote
+Quote Post

Reply to this topicStart new topic
2 User(s) are reading this topic (2 Guests and 0 Anonymous Users)
0 Members:

 



- Lo-Fi Version Support form
Copyrights and abuse reports form
Time is now: 24th January 2022 - 15:44:30