Welcome Guest ( Log In | Register )

> Releases Upload / Добавление релизов

Добавить релиз тут / Click here to add release
Рекомендованные обменники / Recommended file shares

 
Reply to this topicStart new topic
> Chagrin & Hellhole & Joy - Fire Death And Fear [split] (2021), Atmospheric/Post-Black Metal | Atmospheric/Post-Black Metal | Atmosphe
post Oct 12 2021, 16:54:41
Post #1

Правь статус, ####!111
**************
Group: Металариец
Posts: 4,355
Releases: 3996
From: Одесса
On Forums: 13 years 4 months
Thanks: 44181 time(s)
Ukraine


(IMG:http://metalarea.org/images/audiocovers/2021_Oct/acov_tid356633_thumb.jpg)

*Artist: Chagrin & Hellhole & Joy
*Album: Fire Death And Fear [split]
*Year: 2021
*Genre: Atmospheric/Post-Black Metal | Atmospheric/Post-Black Metal | Atmospheric/Post-Black Metal
*Country: Australia (IMG:http://metalarea.org/forum/style_images/flags/Australia.png) | Australia (IMG:http://metalarea.org/forum/style_images/flags/Australia.png) | Australia (IMG:http://metalarea.org/forum/style_images/flags/Australia.png)
*Format: mp3@CBR320kbps
*Size: 121MB

Tracklist:
Chagrin:
1. My Love in the Dark Heart of the Night 04:02
2. Meaningless Days - Meaningless Nights 04:08
Hellhole:
3. I Succumbed 06:08
Joy:
4. The Dead Don't Dream 13:50
Hellhole:
5. Death Earth 05:13
6. Dreaming Is Pointless 06:47
Chagrin:
7. Right from the Start 04:37
Hellhole:
8. Die Alone 05:54
******************************
Total playing time: 50:39



Technical info
(IMG:http://metalarea.org/images/spectrogram/2021_Oct/22e8e4a56d78dba1458c3ffc5028b9cb.png)
Input File: 04. The dead don\'t dream.mp3
Channels : 2
Sample Rate : 44100
Precision : 16-bit
Duration : 00:13:50.14 = 36609262 samples = 62260.6 CDDA sectors
File Size : 33.3M
Bit Rate : 321k
Sample Encoding: MPEG audio (layer I, II or III)
Comments :
Title=The dead don't dream
Artist=Joy
Album=Fire Death and Fear (Split)
Tracknumber=4
Year=2021
Genre=Atmospheric/Post-Black Metal



Register


Go to the top of the page
  Insert nick Quick quote
+Quote Post

Reply to this topicStart new topic
1 User(s) are reading this topic (1 Guests and 0 Anonymous Users)
0 Members:

 



- Lo-Fi Version Support form
Copyrights and abuse reports form
Time is now: 26th October 2021 - 00:05:37