Welcome Guest ( Log In | Register )

> Releases Upload / Добавление релизов

Добавить релиз тут / Click here to add release
Рекомендованные обменники / Recommended file shares

> Lilja - Suvijäät (2020), Atmospheric Black Metal
post Oct 12 2021, 20:21:28
Post #1

Пять Литров
*****
Group: Металариец
Posts: 439
Releases: 77
From: italy
On Forums: 13 years 3 months
Thanks: 1714 time(s)
Italy


(IMG:http://metalarea.org/images/audiocovers/2021_Oct/acov_tid356641_thumb.jpg)

*Artist: Lilja
*Album: Suvijäät
*Year: 2020
*Genre: Atmospheric Black Metal
*Country: Finland (IMG:http://metalarea.org/forum/style_images/flags/Finland.png)
*Format: mp3@VBR240kbps
*Size: 129MB

Tracklist:
1. Vaihdokas 02:00
2. Suvijaat 05:46
3. Taistele/Pakene 07:38
4. ??? 08:57
5. Univalo 14:58
6. Sivullinen 09:57
7. Juhannushautajaiset 05:00
8. Jäätaivas 16:35
8. Naturerotica 04:52
******************************
Total playing time: 1:15:43



Technical info
(IMG:http://metalarea.org/images/spectrogram/2021_Oct/1a60e48198d0b4ec193e47396e9fcd9f.png)
Input File: Lilja - Suvijäät - 03 Taistele - Pakene.mp3
Channels : 2
Sample Rate : 44100
Precision : 16-bit
Duration : 00:07:38.03 = 20199167 samples = 34352.3 CDDA sectors
File Size : 14.2M
Bit Rate : 248k
Sample Encoding: MPEG audio (layer I, II or III)
Comments :
Title=Taistele / Pakene
Artist=Lilja
Album=Suvijäät
Tracknumber=3
Year=2020
Genre=Atmospheric Black Metal



Register


Go to the top of the page
  Insert nick Quick quote
+Quote Post
 
Start new topic
Replies (1 - 1)
post Oct 13 2021, 18:56:52
Post #2

Пять Литров
*****
Group: Металариец
Posts: 415
Releases: 0
On Forums: 12 years 9 months
Thanks: 329 time(s)
Brazil


На обложке, видать, сама Лиля.

UPD: депрессив с вокалом откуда-то из подвала, послушать один трек и удалить.
Go to the top of the page
  Insert nick Quick quote
+Quote Post

Reply to this topicStart new topic
1 User(s) are reading this topic (1 Guests and 0 Anonymous Users)
0 Members:

 



- Lo-Fi Version Support form
Copyrights and abuse reports form
Time is now: 26th October 2021 - 00:14:27