Welcome Guest ( Log In | Register )

> Releases Upload / Добавление релизов

Добавить релиз тут / Click here to add release
Рекомендованные обменники / Recommended file shares

 
Reply to this topicStart new topic
> Umbra Omega - Excessit (2021), Instrumental Post-Black Metal
post Oct 12 2021, 20:28:23
Post #1

funeral doom fan
Group Icon
Group: S-moderation team
Posts: 5,172
Releases: 2819
From: Ростов-на-Дону
On Forums: 15 years 9 months
Thanks: 53373 time(s)
Russian Federation


(IMG:http://metalarea.org/images/audiocovers/2021_Oct/acov_tid356645_thumb.jpg)

*Artist: Umbra Omega
*Album: Excessit
*Year: 2021
*Genre: Instrumental Post-Black Metal
*Country: Mexico (IMG:http://metalarea.org/forum/style_images/flags/Mexico.png)
*Format: mp3@CBR320kbps
*Size: 100MB

Tracklist:
1. Absurd 08:45
2. Existence 04:28
3. Negation 06:21
4. Collapse 06:02
5. Sisyphus 04:08
6. Abyss 05:22
7. Flâner 08:40
******************************
Total playing time: 43:46



Technical info
(IMG:http://metalarea.org/images/spectrogram/2021_Oct/73410a2033f86dc7bcf6d6824121d406.png)
Input File: 02 - Existence.mp3
Channels : 2
Sample Rate : 44100
Precision : 16-bit
Duration : 00:04:28.32 = 11832956 samples = 20124.1 CDDA sectors
File Size : 10.7M
Bit Rate : 320k
Sample Encoding: MPEG audio (layer I, II or III)
Comments :
Title=Existence
Artist=Umbra Omega
Album=Excessit
Tracknumber=02
Year=2021



Register


Go to the top of the page
  Insert nick Quick quote
+Quote Post

Reply to this topicStart new topic
1 User(s) are reading this topic (1 Guests and 0 Anonymous Users)
0 Members:

 



- Lo-Fi Version Support form
Copyrights and abuse reports form
Time is now: 26th October 2021 - 00:41:14