Welcome Guest ( Log In | Register )

> Releases Upload / Добавление релизов

Добавить релиз тут / Click here to add release
Рекомендованные обменники / Recommended file shares

> Blodhéfnd - Hand Of Vecna (2021), Black Metal
post Oct 12 2021, 20:29:33
Post #1

funeral doom fan
Group Icon
Group: S-moderation team
Posts: 5,172
Releases: 2819
From: Ростов-на-Дону
On Forums: 15 years 9 months
Thanks: 53373 time(s)
Russian Federation


(IMG:http://metalarea.org/images/audiocovers/2021_Oct/acov_tid356646_thumb.jpg)

*Artist: Blodhéfnd
*Album: Hand Of Vecna
*Year: 2021
*Genre: Black Metal
*Country: Norway (IMG:http://metalarea.org/forum/style_images/flags/Norway.png)
*Format: mp3@CBR320kbps
*Size: 41MB

Tracklist:
1. Arcane Powers of the Mystical Dark 00:48
2. The Sorcerer 02:56
3. Hand of Vecna 03:23
4. Kråkevisa 01:24
5. From the Past... 01:52
6. Into the Hateful Castle 02:12
7. Passion for Demise 02:13
8. In Memory of the Train Man 03:00
******************************
Total playing time: 17:48



Technical info
(IMG:http://metalarea.org/images/spectrogram/2021_Oct/0fca5db74a1b160dcc449e77fc9396dc.png)
Input File: 02 - The Sorcerer.mp3
Channels : 2
Sample Rate : 44100
Precision : 16-bit
Duration : 00:02:56.03 = 7762703 samples = 13201.9 CDDA sectors
File Size : 7.11M
Bit Rate : 323k
Sample Encoding: MPEG audio (layer I, II or III)
Comments :
Title=The Sorcerer
Artist=Blodhéfnd
Album=Hand Of Vecna
Tracknumber=02
Year=2021



Register


Go to the top of the page
  Insert nick Quick quote
+Quote Post
 
Start new topic
Replies (1 - 1)
post Oct 13 2021, 23:24:28
Post #2

Два Литра
**
Group: Завсегдатай
Posts: 179
Releases: 0
On Forums: 3 years 8 months
Thanks: 56 time(s)
Saint Helena


В D&D Векна был описан как могущественный волшебник, который стал личем . Он был, в конечном итоге, уничтожен, а его левая рука и левый глаз были единственными выжившими частями его тела. Даже после того, как он достиг божественности - будучи членом стандартного пантеона богов D&D третьего издания (пантеон Эрта) - он все еще описывается как потерявший левый глаз и левую руку. Священный символ Векны - глаз на ладони левой руки.

«Правая рука» Векны и его предатель - Кас Кровавый, вампир, чей меч Каса - тоже артефакт.
Go to the top of the page
  Insert nick Quick quote
+Quote Post

Reply to this topicStart new topic
1 User(s) are reading this topic (1 Guests and 0 Anonymous Users)
0 Members:

 



- Lo-Fi Version Support form
Copyrights and abuse reports form
Time is now: 25th October 2021 - 23:48:08