Welcome Guest ( Log In | Register )

> Releases Upload / Добавление релизов

Добавить релиз тут / Click here to add release
Рекомендованные обменники / Recommended file shares

> Omniscience - Ancient Spell (2021), Atmospheric Black Metal
post Oct 12 2021, 20:31:37
Post #1

funeral doom fan
Group Icon
Group: S-moderation team
Posts: 5,172
Releases: 2819
From: Ростов-на-Дону
On Forums: 15 years 9 months
Thanks: 53373 time(s)
Russian Federation


(IMG:http://metalarea.org/images/audiocovers/2021_Oct/acov_tid356648_thumb.jpg)

*Artist: Omniscience
*Album: Ancient Spell
*Year: 2021
*Genre: Atmospheric Black Metal
*Country: Brazil (IMG:http://metalarea.org/forum/style_images/flags/Brazil.png)
*Format: mp3@CBR320kbps
*Size: 116MB

Tracklist:
1. Ancient Spell 03:36
2. Hedron's Landscape 06:42
3. Through the Forest 04:58
4. Far Beyond 05:32
5. Travelers in Desecrated Land 08:50
6. The Coming of Iona 08:20
7. Gates of the Mindless Temple 06:38
8. Battle of the World 06:24
******************************
Total playing time: 51:00



Technical info
(IMG:http://metalarea.org/images/spectrogram/2021_Oct/2f33829dc1dbcb673456710db2e7a9ca.png)
Input File: 01 - Ancient Spell.mp3
Channels : 2
Sample Rate : 44100
Precision : 16-bit
Duration : 00:03:36.54 = 9549590 samples = 16240.8 CDDA sectors
File Size : 8.66M
Bit Rate : 320k
Sample Encoding: MPEG audio (layer I, II or III)
Comments :
Title=Ancient Spell
Artist=Omniscience
Album=Ancient Spell
Tracknumber=01
Year=2021



Register


Go to the top of the page
  Insert nick Quick quote
+Quote Post
 
Start new topic
Replies (1 - 2)
post Oct 13 2021, 08:48:23
Post #2

Четыре Литра
****
Group: Металариец
Posts: 302
Releases: 0
From: минск сити
On Forums: 12 years 3 months
Thanks: 143 time(s)
Belarus


Бразильский вариант Summoning, я бы сказал, что неплохо, но такие электронные барабаны (их дубовость и плохие сэмплы) портят впечатление.


Thanks:
(1) cesar,
Go to the top of the page
  Insert nick Quick quote
+Quote Post
post Oct 22 2021, 09:42:39
Post #3

brutalcesar
**************
Group: Металариец
Posts: 18,269
Releases: 71
From: Рязань
On Forums: 12 years 9 months
Thanks: 10379 time(s)
Russian Federation


ЦИТАТА(дивин @ Oct 13 2021, 10:48:23) *
Бразильский вариант Summoning, я бы сказал, что неплохо, но такие электронные барабаны (их дубовость и плохие сэмплы) портят впечатление.

Согласен с каждым словом!
Go to the top of the page
  Insert nick Quick quote
+Quote Post

Reply to this topicStart new topic
1 User(s) are reading this topic (1 Guests and 0 Anonymous Users)
0 Members:

 



- Lo-Fi Version Support form
Copyrights and abuse reports form
Time is now: 25th October 2021 - 23:57:52