Welcome Guest ( Log In | Register )

> Releases Upload / Добавление релизов

Добавить релиз тут / Click here to add release
Рекомендованные обменники / Recommended file shares

 
Reply to this topicStart new topic
> Waldgeflüster - Dahoam (2021), Atmospheric Black Metal (D)
post Oct 12 2021, 21:19:07
Post #1

𝕻𝕬𝕹𝕬𝕮𝕰𝕬
*********
Group: Металариец
Posts: 959
Releases: 565
On Forums: 9 years 4 months
Thanks: 10335 time(s)
Unknown


(IMG:http://metalarea.org/images/audiocovers/2021_Oct/acov_tid356652_thumb.jpg)

*Artist: Waldgeflüster
*Album: Dahoam
*Year: 2021
*Genre: Atmospheric Black Metal
*Country: Germany (IMG:http://metalarea.org/forum/style_images/flags/Germany.png)
*Format: mp3@CBR320kbps
*Size: 114MB

Tracklist:
1. A Taglachinger Morgen 02:42
2. Im Ebersberger Forst 10:14
3. Am Stoa 04:09
4. Am Tatzelwurm 10:47
5. In Da Fuizn 04:41
6. Mim Blick Aufn Kaiser 11:10
7. Am Wendelstoa 05:37
******************************
Total playing time: 49:20




Technical info
(IMG:http://metalarea.org/images/spectrogram/2021_Oct/8b5436ebcef803782d17156474ef5f38.png)
Input File: 05 - In Da Fuizn.mp3
Channels : 2
Sample Rate : 44100
Precision : 16-bit
Duration : 00:04:41.98 = 12435494 samples = 21148.8 CDDA sectors
File Size : 11.5M
Bit Rate : 325k
Sample Encoding: MPEG audio (layer I, II or III)
Comments :
Title=In Da Fuizn
Artist=Waldgeflüster
Album=Dahoam
Tracknumber=5
Year=2021
Genre=Atmospheric Black Metal



Register


Go to the top of the page
  Insert nick Quick quote
+Quote Post

Reply to this topicStart new topic
1 User(s) are reading this topic (1 Guests and 0 Anonymous Users)
0 Members:

 



- Lo-Fi Version Support form
Copyrights and abuse reports form
Time is now: 25th October 2021 - 23:46:37