Welcome Guest ( Log In | Register )

> Releases Upload / Добавление релизов

Добавить релиз тут / Click here to add release
Рекомендованные обменники / Recommended file shares

> Cosmic Burial - Stella Nova [demo] (2019), Atmospheric Black Metal
post Oct 12 2021, 23:52:33
Post #1

Правь статус, ####!616
**************
Group: Металариец
Posts: 7,217
Releases: 5651
From: 55°35’N 38°08’E
On Forums: 13 years 3 months
Thanks: 103162 time(s)
Unknown


(IMG:https://metalarea.org/images/audiocovers/2021_Oct/acov_tid356655_thumb.jpg)

*Artist: Cosmic Burial
*Album: Stella Nova [demo]
*Year: 2019
*Genre: Atmospheric Black Metal
*Country: Germany (IMG:https://metalarea.org/forum/style_images/flags/Germany.png)
*Format: mp3@CBR320kbps
*Size: 135MB

Tracklist:
1.Stella Nova 16:40
2.Galactic Winds 12:44
3.Starry Night 13:43
4.Supernova 16:03
******************************
Total playing time: 59:10




Extended info
Instrumental
CD, Purity Through Fire (PTF264)(2021)
FLAC-Rip


Technical info
(IMG:https://metalarea.org/images/spectrogram/2021_Oct/6d28e620ebad471711d5a6ce7b9c1e14.png)
Input File: 01 Stella Nova.mp3
Channels : 2
Sample Rate : 44100
Precision : 16-bit
Duration : 00:16:40.68 = 44129944 samples = 75050.9 CDDA sectors
File Size : 40.2M
Bit Rate : 321k
Sample Encoding: MPEG audio (layer I, II or III)
Comments :
Title=Stella Nova
Artist=Cosmic Burial
Album=Stella Nova
Tracknumber=01/4
Year=2021
Genre=Black Metal
Discnumber=1/1



Register


Go to the top of the page
  Insert nick Quick quote
+Quote Post
 
Start new topic
Replies (1 - 1)
post Oct 13 2021, 11:17:02
Post #2

Правь статус, ####!616
**************
Group: Металариец
Posts: 7,217
Releases: 5651
From: 55°35’N 38°08’E
On Forums: 13 years 3 months
Thanks: 103162 time(s)
Unknown


FLAC

Register


Thanks:
(1) Arkwulf,
Go to the top of the page
  Insert nick Quick quote
+Quote Post

Reply to this topicStart new topic
2 User(s) are reading this topic (2 Guests and 0 Anonymous Users)
0 Members:

 



- Lo-Fi Version Support form
Copyrights and abuse reports form
Time is now: 26th October 2021 - 01:03:13