Welcome Guest ( Log In | Register )

> Releases Upload / Добавление релизов

Добавить релиз тут / Click here to add release
Рекомендованные обменники / Recommended file shares

> Deviant Process - Nurture (2021), Progressive Death Metal
post Oct 13 2021, 02:14:32
Post #1

Правь статус, ####!111
**************
Group: Металариец
Posts: 27,739
Releases: 20173
From: Г.Харьков
On Forums: 9 years 5 months
Thanks: 408634 time(s)
Unknown


(IMG:https://metalarea.org/images/audiocovers/2021_Oct/acov_tid356657_thumb.jpg)

*Artist: Deviant Process
*Album: Nurture
*Year: 2021
*Genre: Progressive Death Metal
*Country: Canada (IMG:https://metalarea.org/forum/style_images/flags/Canada.png)
*Format: mp3@CBR320kbps
*Size: 107MB

Tracklist:
1. In Worship, in Blood 07:32
2. Emergence 05:20
3. Asynchronous 05:42
4. The Hammer of Dogma 05:50
5. Syrtis Magna 05:57
6. Homo Homini Deus 04:37
7. The Blessings of Annihilation Infinite 07:49
8. Cybervoid (Obliveon cover) 03:56
******************************
Total playing time: 46:43




Extended info
Jean-Daniel Villeneuve Guitars, Vocals (2009-present)
See also: Solinaris
Stéphane Simard Guitars, Vocals (backing) (2009-present)
See also: The Aftermath
Philippe Cimon Bass (2016-present)
See also: The Aftermath
Michel Bélanger Drums (2019-present)
See also: The Flaying




Technical info
(IMG:https://metalarea.org/images/spectrogram/2021_Oct/50bb7067918248be40599e89a0b03da2.png)
Input File: 07. The Blessings of Annihilation Infinite.mp3
Channels : 2
Sample Rate : 44100
Precision : 16-bit
Duration : 00:07:48.77 = 20672757 samples = 35157.8 CDDA sectors
File Size : 18.8M
Bit Rate : 321k
Sample Encoding: MPEG audio (layer I, II or III)
Comments :
Title=The Blessings of Annihilation Infinite
Artist=Deviant Process
Album=Nurture
Tracknumber=7
Year=2021



Register


Go to the top of the page
  Insert nick Quick quote
+Quote Post
 
Start new topic
Replies (1 - 2)
post Oct 14 2021, 07:11:48
Post #2

Cultist
**************
Group: Металариец
Posts: 4,445
Releases: 1335
From: Koenigsberg
On Forums: 14 years 10 months
Thanks: 9228 time(s)
Russian Federation


очень хорошо
Go to the top of the page
  Insert nick Quick quote
+Quote Post
post Oct 20 2021, 18:40:19
Post #3

0%Tolerance
**********
Group: Металариец
Posts: 1,393
Releases: 0
On Forums: 9 years 1 month
Thanks: 259 time(s)
Unknown


Математично. С середины альбома дрoчка становится более искусной.
Go to the top of the page
  Insert nick Quick quote
+Quote Post

Reply to this topicStart new topic
1 User(s) are reading this topic (1 Guests and 0 Anonymous Users)
0 Members:

 



- Lo-Fi Version Support form
Copyrights and abuse reports form
Time is now: 25th October 2021 - 23:04:07