Welcome Guest ( Log In | Register )

> И неформату есть предел.

Рэп/хип-хоп/шансон/поп удаляются. Для них есть свои порталы.

 
Reply to this topicStart new topic
> Astral Winter - Perdition Ii (2020), Ambient/Acoustic (D5)
post Oct 17 2021, 12:21:50
Post #1

funeral doom fan
Group Icon
Group: S-moderation team
Posts: 5,346
Releases: 3003
From: Ростов-на-Дону
On Forums: 15 years 11 months
Thanks: 56792 time(s)
Russian Federation


(IMG:http://metalarea.org/images/audiocovers/2021_Oct/acov_tid356835_thumb.jpg)

*Artist: Astral Winter
*Album: Perdition Ii
*Year: 2020
*Genre: Ambient/Acoustic
*Country: Australia (IMG:http://metalarea.org/forum/style_images/flags/Australia.png)
*Format: mp3@CBR320kbps
*Size: 87MB

Tracklist:
1. Corridors Of Time 04:10
2. Light Of The Cosmos 05:42
3. Ethereal Light 02:07
4. Fading From The Skies 04:00
5. Dreams Of The Stars 05:11
6. Crystal Tears 01:54
7. The Celestial Age 03:29
8. At The Gates Of Creation 04:58
9. Withering Illusion 06:29
******************************
Total playing time: 38:00

Preview 1

Technical info
(IMG:http://metalarea.org/images/spectrogram/2021_Oct/b667af5354ee3d51ca248e8b16830327.png)
Input File: 06 - Crystal Tears.mp3
Channels : 2
Sample Rate : 44100
Precision : 16-bit
Duration : 00:01:54.24 = 5038072 samples = 8568.15 CDDA sectors
File Size : 4.57M
Bit Rate : 320k
Sample Encoding: MPEG audio (layer I, II or III)
Comments :
Title=Crystal Tears
Artist=Astral Winter
Album=Perdition II
Tracknumber=06
Year=2020



Register


Go to the top of the page
  Insert nick Quick quote
+Quote Post

Reply to this topicStart new topic
1 User(s) are reading this topic (1 Guests and 0 Anonymous Users)
0 Members:

 



- Lo-Fi Version Support form
Copyrights and abuse reports form
Time is now: 29th November 2021 - 06:00:38