Welcome Guest ( Log In | Register )

> Releases Upload / Добавление релизов

Добавить релиз тут / Click here to add release
Рекомендованные обменники / Recommended file shares

> Running Wild - The Shellback [single] (2021), Heavy/Power/Speed Metal (D)
post Oct 23 2021, 08:54:21
Post #1

MDM-Thrash Metal
**************
Group: Металариец
Posts: 10,702
Releases: 1345
From: Одесса
On Forums: 14 years 3 months
Thanks: 32509 time(s)
Ukraine


(IMG:http://metalarea.org/images/audiocovers/2021_Oct/acov_tid357081_thumb.jpg)

*Artist: Running Wild
*Album: The Shellback [single]
*Year: 2021
*Genre: Heavy/Power/Speed Metal
*Country: Germany (IMG:http://metalarea.org/forum/style_images/flags/Germany.png)
*Format: mp3@CBR320kbps
*Size: 14MB

Tracklist:
1. The Shellback 06:11
******************************
Total playing time: 6:11



(IMG:http://metalarea.org/images/youtube.png)

Extended info
Rock 'n' Rolf Vocals, Guitars (1979-2009, 2011-present), Bass (2004)
See also: Giant-X, Toxic Taste, ex-Granite Hearts
Peter Jordan Guitars (2005-2009, 2011-present)
See also: Giant-X, Toxic Taste, ex-Peek-a-Boo
Ole Hempelmann Bass (2019-present)
See also: ex-Donnerkopf, ex-Talon, ex-Thunderhead, ex-Dreamtide
Michael Wolpers Drums (2019-present)
See also: FB1964, ex-Herman Frank, ex-Victory


Очень неплохо! Посыл на старый добрый Раннинг!


Technical info
(IMG:http://metalarea.org/images/spectrogram/2021_Oct/30c987983b4f780c780b550f5208662d.png)
Input File: Running Wild - The Shellback.mp3
Channels : 2
Sample Rate : 44100
Precision : 16-bit
Duration : 00:06:12.71 = 16436467 samples = 27953.2 CDDA sectors
File Size : 14.9M
Bit Rate : 320k
Sample Encoding: MPEG audio (layer I, II or III)



Register


Go to the top of the page
  Insert nick Quick quote
+Quote Post
 
Start new topic
Replies (1 - 2)
post Oct 23 2021, 17:33:03
Post #2

MDM-Thrash Metal
**************
Group: Металариец
Posts: 10,702
Releases: 1345
From: Одесса
On Forums: 14 years 3 months
Thanks: 32509 time(s)
Ukraine


Не знаю хум хау, а мне трек понравился. Очень сильно отдает старым добрым Раннигом! Надеюсь, что новый альбом будет выдержан в подобном ключе.


Thanks:
Go to the top of the page
  Insert nick Quick quote
+Quote Post
post Oct 26 2021, 15:52:41
Post #3

0%Tolerance
**********
Group: Металариец
Posts: 1,493
Releases: 0
On Forums: 9 years 2 months
Thanks: 282 time(s)
Unknown


Годная телега от Раннинг Вайлда.
Go to the top of the page
  Insert nick Quick quote
+Quote Post

Reply to this topicStart new topic
1 User(s) are reading this topic (1 Guests and 0 Anonymous Users)
0 Members:

 



- Lo-Fi Version Support form
Copyrights and abuse reports form
Time is now: 5th December 2021 - 00:05:35