Welcome Guest ( Log In | Register )

> Releases Upload / Добавление релизов

Добавить релиз тут / Click here to add release
Рекомендованные обменники / Recommended file shares

 
Reply to this topicStart new topic
> Blue Holocaust & Houkago Grind Time - Nilbog Attack/Do You Love Anime Pt. 7 [split] (2021), Grindcore | Grindcore/Goregrind (D10)
post Oct 24 2021, 07:08:48
Post #1

Мегаманьяк
***********
Group: Металариец
Posts: 1,737
Releases: 562
On Forums: 11 years 2 weeks
Thanks: 12058 time(s)
Italy


(IMG:https://metalarea.org/images/audiocovers/2021_Oct/acov_tid357164_thumb.jpg)

*Artist: Blue Holocaust & Houkago Grind Time
*Album: Nilbog Attack/Do You Love Anime Pt. 7 [split]
*Year: 2021
*Genre: Grindcore | Grindcore/Goregrind
*Country: France (IMG:https://metalarea.org/forum/style_images/flags/France.png) | United States (IMG:https://metalarea.org/forum/style_images/flags/United%20States.png)
*Format: mp3@CBR320kbps
*Size: 31MB

Tracklist:
Blue Holocaust:
1.Anti-Human Nilbog Attack 01:04
2.Feast on Transmogrified Carnage 00:49
3.Start the Slaughter! 00:49
4.The Stink of Burning Flesh 00:47
5.Rest in Festering Green Slime 00:45
6.Piss on your Hospitality 00:49
7.Intro......... (Disattack) 00:25
8.Splenetic Matricidal Revenge (We're gonna eat your mom) 01:17
Houkago Grind Time:
9.Gotta Mince Em All 00:47
10.Sorry I Am Not Japanese 01:35
11.Cha-la Hey Cha-la 00:58
12.Just Co-mince-ication 01:05
13.Cruel Grinder's Thesis 01:19
******************************
Total playing time: 12:29




Technical info
(IMG:https://metalarea.org/images/spectrogram/2021_Oct/afae600063a5ce4e2d9d40233991492f.png)
Input File: 02.Blue Holocaust - Feast on Transmogrified Carnage.mp3
Channels : 2
Sample Rate : 44100
Precision : 16-bit
Duration : 00:00:49.56 = 2185596 samples = 3717 CDDA sectors
File Size : 2.40M
Bit Rate : 388k
Sample Encoding: MPEG audio (layer I, II or III)
Comments :
Title=Feast on Transmogrified Carnage
Artist=Blue Holocaust
Album=Nilbog Attack
Tracknumber=02
Year=2021
Genre=Grindcore



Register


Go to the top of the page
  Insert nick Quick quote
+Quote Post

Reply to this topicStart new topic
1 User(s) are reading this topic (1 Guests and 0 Anonymous Users)
0 Members:

 



- Lo-Fi Version Support form
Copyrights and abuse reports form
Time is now: 4th December 2021 - 23:13:27